abclinuxu.cz AbcLinuxu.cz itbiz.cz ITBiz.cz HDmag.cz HDmag.cz abcprace.cz AbcPráce.cz
AbcLinuxu hledá autory!
Inzerujte na AbcPráce.cz od 950 Kč
Rozšířené hledání
×

dnes 06:00 | Zajímavý článek

USA Network vysílá již třetí sérii seriálu Mr. Robot (Wikipedie, ČSFD.cz). Ryan Kazanciyan, technický konzultant seriálu, se na Medium v sérii článků Mr. Robot Disassembled věnuje jednotlivým dílům a popisuje použité nástroje a postupy.

Ladislav Hagara | Komentářů: 2
včera 23:55 | IT novinky

Společnost StartCom oficiálně oznámila, že jako certifikační autorita končí. Od 1. ledna 2018 přestane vydávat nové certifikáty a následující 2 roky bude poskytovat OCSP a CRL. Počátkem roku 2020 budou všechny platné certifikáty zneplatněny.

Ladislav Hagara | Komentářů: 20
včera 22:00 | IT novinky

Hodnota Bitcoinu, decentralizované kryptoměny, překonala hranici 8 000 dolarů [reddit].

Ladislav Hagara | Komentářů: 3
včera 21:55 | Zajímavý software

Byla vydána verze 10.0 linuxové distribuce Raspberry Digital Signage. Jedná se o distribuci pro jednodeskové počítače Raspberry Pi určenou k prezentačním účelům (veletrhy, prodejny, ...). Po naběhnutí systému je spuštěn webový prohlížeč v režimu celé obrazovky a vybraná prezentace. Nejnovější Raspberry Digital Signage vychází z distribuce Raspbian Stretch.

Ladislav Hagara | Komentářů: 0
včera 13:33 | Zajímavý software

Společnost Google na svém blogu věnovaném open source představila container-diff, nástroj pro analýzu a porovnávání Docker kontejnerů. Zdrojové kódy jsou k dispozici pod licencí Apache 2.0.

Ladislav Hagara | Komentářů: 0
včera 08:00 | Komunita

Flatpak Workshop proběhne ve středu 29. listopadu od 10:00 v Brně. V dopolední přednáškové části se účastníci seznámí s Flatpakem, se specifiky pro aplikace napsané v Qt a GTK+, portály, které integrují aplikace do systému, a na závěr, jak dostat aplikaci do Flathubu, což je momentálně největší centralizovaný repozitář Flatpaků. V odpolední části si pak mohou za pomoci lektorů zkusit nějakou aplikaci zabalit pro Flatpak. Workshop je určen pro 20 účastníků. Nutná je registrace.

Ladislav Hagara | Komentářů: 6
včera 07:00 | Zajímavý článek

Software Freedom Law Center a Software Freedom Conservancy jsou organizace zaměřené na podporu svobodných/open-source projektů: SFLC poskytuje právní konzultace, SFC mj. také zázemí. SFC upozornila, že ze strany SFLC vůči ní proběhly právní kroky směřující k odebrání obchodní známky. SFLC v reakci tvrdí, že se jedná o logický krok, protože obchodní známky jsou si podobné, a SFC dlouhodobě nekooperuje. Brian Lunduke situaci shrnuje včetně ohlasů Neila McGoverna a Matthewa Garretta. Podle nich je Eben Moglen ze SFLC v konfliktu se zájmy komunity.

Fluttershy, yay! | Komentářů: 2
včera 06:00 | Komunita

MariaDB Foundation, nadace stojící za vývojem open source relační databáze MariaDB, oznámila, že Microsoft se stal jejím členem a platinovým sponzorem. Cílem Microsoftu je optimalizace MariaDB pro cloudovou platformu Microsoft Azure.

Ladislav Hagara | Komentářů: 0
16.11. 23:44 | IT novinky

Společnosti Dell a Canonical společně představily 5 nových počítačů Dell Precision s předinstalovaným Ubuntu. Jedná se o 4 notebooky a 1 all-in-one počítač. Cena počítačů s Ubuntu je o 100 dolarů nižší než jejich cena s Windows 10.

Ladislav Hagara | Komentářů: 15
16.11. 22:55 | Nová verze

Po pěti měsících vývoje od vydání verze 4.8 byla vydána nová verze 4.9 svobodného open source redakčního systému WordPress. Kódové označením Tipton bylo vybráno na počest amerického jazzového muzikanta a kapelníka Billyho Tiptona.

Ladislav Hagara | Komentářů: 0
Jak se vás potenciálně dotkne trend odstraňování analogového audio konektoru typu 3,5mm jack z „chytrých telefonů“?
 (9%)
 (1%)
 (1%)
 (1%)
 (74%)
 (14%)
Celkem 710 hlasů
 Komentářů: 36, poslední 17.11. 18:43
    Rozcestník

    Dotaz: Sada obrazku to video

    27.10.2002 18:56 Michal Svanda
    Sada obrazku to video
    Přečteno: 89×
    Ahoj. Potreboval bych nejaky soft, ktery ze sady obrazku (cca 400 snimku) umi udelat video v nejakem a vseobecne pouzitelnem formatu (avi, mpeg, ...). Experimenty s mpeg_encode nedavaji skoro zadne vysledky. Dekuji!

    Odpovědi

    27.10.2002 19:10 finn
    Rozbalit Rozbalit vše Sada obrazku to video
    myslim, ze tohle umi treba gimp, ale nikdy jsem to nezkousel
    Selmi avatar 28.10.2002 09:16 Selmi | skóre: 17 | Košice
    Rozbalit Rozbalit vše Sada obrazku to video
    mencoder (www.mplayerhq.hu) treba pozriet dokumentaciu, ale ja pouzivam toto a zatial som bol uplne spokojny
    28.10.2002 10:33 Michal Švanda | skóre: 19 | blog: vlkovo
    Rozbalit Rozbalit vše Sada obrazku to video
    Zkusil jsem tuto moznost a skoncilo to neopravnenym pristupem do pameti a to velmi brzy po spusteni :-( Libovolno, zda poustim v X nebo v konzoli. Nicmene tato moznost je dost zajimava.
    Nemuze to souviset s prekladem v GCC 2.96?
    28.10.2002 21:48 Michal Švanda | skóre: 19 | blog: vlkovo
    Rozbalit Rozbalit vše Sada obrazku to video
    Tak tohle uz jsem vyresil. Prechod na GCC 3.0.4 a je to, uz to pristupuje do pameti zcela opravnene. :-) Uz se s tim nejak snad poperu, jen musim MEncoder presvedcit, ze nechci u obrazku menit rozmery z 400x400 na 100x400. ;-)

    Kazdopadne diky za radu!

    28.10.2002 18:15 Arnost
    Rozbalit Rozbalit vše Sada obrazku to video
    mam pocit ze ffmpeg (ffmpeg.sf.net)
    28.10.2002 21:09 Michal Švanda | skóre: 19 | blog: vlkovo
    Rozbalit Rozbalit vše Sada obrazku to video
    Diky za radu, ale :-( :

    [michal@eleanor jpg]$ ffmpeg -r 0.04 -i %04d.jpg ./a.mpg
    mjpeg: JFIF header found (version: 1.1)
    Input #0, jpeg, from '%04d.jpg':
    Stream #0.0: Video: mjpeg, 400x400, 0.04 fps
    Output #0, mpeg, to './a.mpg':
    Stream #0.0: Video: mpeg1video, 400x400, 0.04 fps, q=2-31, 200 kb/s
    Stream mapping:
    Stream #0.0 -> #0.0
    Press [q] to stop encoding
    mjpeg: JFIF header found (version: 1.1)
    Neoprávněný přístup do paměti (SIGSEGV) (core dumped)

    Totez chovani jako s pouzitim mencoderu. Je to uz nejake podezrele. Netusi nekdo, co se to deje? Pouzivam RH7.1, GCC 2.96-85, AMD K6-III-400 MHz, jadro 2.4.9-34.

    Selmi avatar 29.10.2002 09:15 Selmi | skóre: 17 | Košice
    Rozbalit Rozbalit vše Sada obrazku to video
    nepouzivaj gcc 2.96 :-( mimochodom mencoder neni jediny program ktory ma problemy, takisto sa zosype lame, niektore verzie wine,...
    29.10.2002 13:20 Michal Švanda | skóre: 19 | blog: vlkovo
    Rozbalit Rozbalit vše Sada obrazku to video
    Prekompiloval jsem ffmpeg s pomoci gcc 3.0.4 a jeho chovani se nezmenilo, cili havaruje. MEncoder ale funguje korektne.

    Založit nové vláknoNahoru

    Tiskni Sdílej: Linkuj Jaggni to Vybrali.sme.sk Google Del.icio.us Facebook

    ISSN 1214-1267   www.czech-server.cz
    © 1999-2015 Nitemedia s. r. o. Všechna práva vyhrazena.