abclinuxu.cz AbcLinuxu.cz itbiz.cz ITBiz.cz HDmag.cz HDmag.cz abcprace.cz AbcPráce.cz
AbcLinuxu hledá autory!
Inzerujte na AbcPráce.cz od 950 Kč
Rozšířené hledání
×

dnes 12:00 | Pozvánky

V pátek 25. května 2018 v Praze proběhne společné setkání komunity kolem Drupalu a překladatelů softwaru – tématem bude právě lokalizace svobodného softwaru (nejen Drupalu). Program začíná v 9.30 v budově Českého rozhlasu (Vinohradská 12), ale můžete přijít i později během dne.

Fluttershy, yay! | Komentářů: 0
dnes 06:55 | Zajímavý software

Operační systém 9front, zřejmě nejaktivněji vyvíjený neoficiální fork systému Plan 9 (více informací), se dočkal nové verze nazvané „Ghost in the Minesweeper Shell“. K novým vydáním obvykle dochází každé jeden až tři měsíce.

Fluttershy, yay! | Komentářů: 0
dnes 02:00 | Bezpečnostní upozornění

Byly zveřejněny (Project Zero, Intel, AMD, Arm) informace o dalších 2 bezpečnostních chybách v procesorech: variantě 3a aneb CVE-2018-3640 - Rogue System Register Read (RSRE) a variantě 4 aneb CVE-2018-3639 - Speculative Store Bypass (SSB). Podrobnosti o chybě CVE-2018-3639 například v příspěvku na blogu Red Hatu. Princip vysvětlen pomocí videa na YouTube.

Ladislav Hagara | Komentářů: 1
včera 19:44 | Zajímavý software

Spolek vpsFree.cz na svém blogu informuje, že přechází z OpenVZ na vpsAdminOS. Distribuce vpsAdminOS je založena na NixOS a not-os. Pokud provozujete OpenVZ Legacy a nevíte co dál, můžete zvážit vpsAdminOS, který je na migraci kontejnerů z OpenVZ připraven.

Ladislav Hagara | Komentářů: 4
včera 10:22 | Komunita

Minulý týden byla ze správce souborů (Files, Soubory, Nautilus) v GNOME odstraněna možnost spouštění aplikací. Po bouřlivé diskusi byla dnes tato možnost do správce souborů vrácena (commit).

Ladislav Hagara | Komentářů: 28
20.5. 22:44 | Nová verze

Ani ne po měsíci vývoje od vydání verze 2.10.0 byla vydána nová verze 2.10.2 svobodné aplikace pro úpravu a vytváření rastrové grafiky GIMP. Přehled novinek i s náhledy v oznámení o vydání. Opraveno bylo 44 chyb. Novinkou je podpora formátu HEIF (High Efficiency Image File Format) a dva nové filtry.

Ladislav Hagara | Komentářů: 49
20.5. 17:44 | Komunita

SFC (Software Freedom Conservancy) na svém blogu blahopřeje společnosti Tesla k prvnímu kroku k dodržování licence GPL. Tesla ve svých elektromobilech používá svobodný software. Změny ve zdrojovým kódech ale doteď veřejně nezveřejňovala. Změna nastala tento týden. Zdrojové kódy byly zveřejněny na GitHubu. Nejedná se zatím ale o kompletní odpovídající zdrojové kódy (CCS - complete corresponding source).

Ladislav Hagara | Komentářů: 14
19.5. 17:33 | Komunita

Společnost Purism informuje o aktuálním vývoji chytrého telefonu Librem 5, jenž by měl respektovat bezpečnost, svobodu a soukromí uživatelů. Telefon už umí telefonovat. Librem 5 by měl být k dispozici v lednu 2019. Předobjednat jej lze za 599 dolarů.

Ladislav Hagara | Komentářů: 32
19.5. 09:00 | Bezpečnostní upozornění

Společnost Qualys zveřejnila výsledky bezpečnostního auditu procps-ng, tj. balíčku s příkazy free, kill, pgrep, pidof, pkill, pmap, ps, pwdx, skill, slabtop, snice, sysctl, tload, top, uptime, vmstat, w a watch. Nalezeno bylo 7 bezpečnostních chyb (CVE-2018-1120, CVE-2018-1121, CVE-2018-1122, CVE-2018-1123, CVE-2018-1124, CVE-2018-1125 a CVE-2018-1126). Dvě z nich jsou zneužitelné k lokální eskalaci práv. Příslušné záplaty jsou již k dispozici v upstreamu.

Ladislav Hagara | Komentářů: 5
18.5. 06:44 | Nová verze

Byla vydána třiadvacátá alfa verze svobodné historické realtimové strategie 0 A.D. (Wikipedie). Kódový název této nejnovější verze je Ken Wood. Představení novinek v poznámkách k vydání a také na YouTube.

Ladislav Hagara | Komentářů: 3
Používáte pro některé služby inetd?
 (34%)
 (24%)
 (42%)
Celkem 138 hlasů
 Komentářů: 4, poslední včera 12:56
    Rozcestník

    Dotaz: Sada obrazku to video

    27.10.2002 18:56 Michal Svanda
    Sada obrazku to video
    Přečteno: 89×
    Ahoj. Potreboval bych nejaky soft, ktery ze sady obrazku (cca 400 snimku) umi udelat video v nejakem a vseobecne pouzitelnem formatu (avi, mpeg, ...). Experimenty s mpeg_encode nedavaji skoro zadne vysledky. Dekuji!

    Odpovědi

    27.10.2002 19:10 finn
    Rozbalit Rozbalit vše Sada obrazku to video
    myslim, ze tohle umi treba gimp, ale nikdy jsem to nezkousel
    Selmi avatar 28.10.2002 09:16 Selmi | skóre: 17 | Košice
    Rozbalit Rozbalit vše Sada obrazku to video
    mencoder (www.mplayerhq.hu) treba pozriet dokumentaciu, ale ja pouzivam toto a zatial som bol uplne spokojny
    28.10.2002 10:33 Michal Švanda | skóre: 19 | blog: vlkovo
    Rozbalit Rozbalit vše Sada obrazku to video
    Zkusil jsem tuto moznost a skoncilo to neopravnenym pristupem do pameti a to velmi brzy po spusteni :-( Libovolno, zda poustim v X nebo v konzoli. Nicmene tato moznost je dost zajimava.
    Nemuze to souviset s prekladem v GCC 2.96?
    28.10.2002 21:48 Michal Švanda | skóre: 19 | blog: vlkovo
    Rozbalit Rozbalit vše Sada obrazku to video
    Tak tohle uz jsem vyresil. Prechod na GCC 3.0.4 a je to, uz to pristupuje do pameti zcela opravnene. :-) Uz se s tim nejak snad poperu, jen musim MEncoder presvedcit, ze nechci u obrazku menit rozmery z 400x400 na 100x400. ;-)

    Kazdopadne diky za radu!

    28.10.2002 18:15 Arnost
    Rozbalit Rozbalit vše Sada obrazku to video
    mam pocit ze ffmpeg (ffmpeg.sf.net)
    28.10.2002 21:09 Michal Švanda | skóre: 19 | blog: vlkovo
    Rozbalit Rozbalit vše Sada obrazku to video
    Diky za radu, ale :-( :

    [michal@eleanor jpg]$ ffmpeg -r 0.04 -i %04d.jpg ./a.mpg
    mjpeg: JFIF header found (version: 1.1)
    Input #0, jpeg, from '%04d.jpg':
    Stream #0.0: Video: mjpeg, 400x400, 0.04 fps
    Output #0, mpeg, to './a.mpg':
    Stream #0.0: Video: mpeg1video, 400x400, 0.04 fps, q=2-31, 200 kb/s
    Stream mapping:
    Stream #0.0 -> #0.0
    Press [q] to stop encoding
    mjpeg: JFIF header found (version: 1.1)
    Neoprávněný přístup do paměti (SIGSEGV) (core dumped)

    Totez chovani jako s pouzitim mencoderu. Je to uz nejake podezrele. Netusi nekdo, co se to deje? Pouzivam RH7.1, GCC 2.96-85, AMD K6-III-400 MHz, jadro 2.4.9-34.

    Selmi avatar 29.10.2002 09:15 Selmi | skóre: 17 | Košice
    Rozbalit Rozbalit vše Sada obrazku to video
    nepouzivaj gcc 2.96 :-( mimochodom mencoder neni jediny program ktory ma problemy, takisto sa zosype lame, niektore verzie wine,...
    29.10.2002 13:20 Michal Švanda | skóre: 19 | blog: vlkovo
    Rozbalit Rozbalit vše Sada obrazku to video
    Prekompiloval jsem ffmpeg s pomoci gcc 3.0.4 a jeho chovani se nezmenilo, cili havaruje. MEncoder ale funguje korektne.

    Založit nové vláknoNahoru

    Tiskni Sdílej: Linkuj Jaggni to Vybrali.sme.sk Google Del.icio.us Facebook

    ISSN 1214-1267   www.czech-server.cz
    © 1999-2015 Nitemedia s. r. o. Všechna práva vyhrazena.