abclinuxu.cz AbcLinuxu.cz itbiz.cz ITBiz.cz HDmag.cz HDmag.cz abcprace.cz AbcPráce.cz
AbcLinuxu hledá autory!
Inzerujte na AbcPráce.cz od 950 Kč
Rozšířené hledání
×
včera 16:55 | Bezpečnostní upozornění

V Drupalu byla nalezena vysoce kritická zranitelnost PSA-2019-02-19. Podrobnosti a opravy 8.5.x a 8.6.x budou zveřejněny dnes mezi 19:00 a 23:00.

Ladislav Hagara | Komentářů: 0
včera 16:33 | Zajímavý projekt

Mozilla.cz informuje o stavu češtiny v projektu Common Voice. Projekt Common Voice sbírá hlasová data, na základě kterých bude možné trénovat modely a software pro rozpoznávání řeči. Aktuálně je nutné rozšířit počet vět v datové sadě a alespoň 5 tisíc vět musí být ručně ověřených několika lidmi.

Ladislav Hagara | Komentářů: 0
včera 16:22 | Nová verze

Byla vydána nová vývojová verze datového formátu a souvisejících nástrojů Relational pipes. Hlavní novinkou verze v0.10 je nástroj relpipe-tr-guile, který díky GNU Guile umožňuje filtrovat a transformovat relační data pomocí výrazů jazyka Scheme.

xkucf03 | Komentářů: 0
včera 00:33 | Bezpečnostní upozornění

CSIRT.CZ upozorňuje na kritickou zranitelnost ve WordPressu umožňující vzdálené spuštění libovolného kódu. Prakticky se jedná o kombinací dvou různých zranitelností (Directory Traversal a Local File Inclusion), pro jejichž úspěšné zneužití musí útočník získat v rámci instance WordPressu alespoň oprávnění autora.

Ladislav Hagara | Komentářů: 2
19.2. 17:33 | Nová verze

Po dvou a půl letech od vydání verze 5.0.0 byla oficiálně vydána nová major verze 6.0.0 správce digitálních fotografií a nově i videí digiKam (digiKam Software Collection). Přehled novinek i s náhledy v oficiálním oznámení. Ke stažení je také balíček ve formátu AppImage. Stačí jej stáhnout, nastavit právo ke spuštění a spustit.

Ladislav Hagara | Komentářů: 0
19.2. 00:44 | Komunita

Do 2. dubna se lze přihlásit do dalšího kola programu Outreachy (Wikipedie), jehož cílem je přitáhnout do světa svobodného a otevřeného softwaru lidi ze skupin, jež jsou ve světě svobodného a otevřeného softwaru málo zastoupeny. Za 3 měsíce práce, od 20. května do 20. srpna 2019, v participujících organizacích lze vydělat 5 500 USD.

Ladislav Hagara | Komentářů: 1
19.2. 00:11 | Bezpečnostní upozornění

Byly zveřejněny informace o o bezpečnostní chybě CVE-2019-6454 ve správci systému a služeb systemd (PID 1). Běžný uživatel jej může shodit připravenou D-Bus zprávou. V upstreamu je chyba již opravena [reddit].

Ladislav Hagara | Komentářů: 3
18.2. 22:44 | Nová verze

Byla vydána nová verze 2019.1 průběžně aktualizované linuxové distribuce navržené pro digitální forenzní analýzu a penetrační testování Kali Linux (Wikipedie). Přehled novinek v changelogu. Vývojáři zdůrazňují Linux 4.19.13 a díky němu opětovnou podporu Banana Pi a Banana Pro, aktualizaci nástrojů jako theHarvester nebo DBeaver a Metasploit Framework ve verzi 5.0. Aktualizovat Kali Linux lze pomocí příkazů "apt update && apt -y full-upgrade".

Ladislav Hagara | Komentářů: 0
18.2. 13:33 | Zajímavý článek

Craig Loewen se v příspěvku na blogu Microsoftu věnuje novinkách ve WSL (Windows Subsystem pro Linux), které přinese Windows 10 1903. Jedná se především o možnost přístupu z Windows (Průzkumník souborů, explorer.exe) k souborům v nainstalovaných linuxových distribucích. Použit je protokol 9P.

Ladislav Hagara | Komentářů: 15
18.2. 10:44 | Zajímavý software

Byl vydán Hangover ve verzi 0.4.0. Jedná se o součást projektu Wine umožňující spouštět Windows aplikace pro x86 a x86_64 na architektuře ARM64 (AArch64). Zdrojové kódy této alfa verze jsou k dispozici na GitHubu.

Ladislav Hagara | Komentářů: 1
Máte v desktopovém prostředí zapnutou zvukovou znělku po přihlášení se do systému?
 (7%)
 (1%)
 (91%)
 (1%)
Celkem 366 hlasů
 Komentářů: 11, poslední 14.2. 07:59
Rozcestník

Dotaz: Sada obrazku to video

27.10.2002 18:56 Michal Svanda
Sada obrazku to video
Přečteno: 89×
Ahoj. Potreboval bych nejaky soft, ktery ze sady obrazku (cca 400 snimku) umi udelat video v nejakem a vseobecne pouzitelnem formatu (avi, mpeg, ...). Experimenty s mpeg_encode nedavaji skoro zadne vysledky. Dekuji!

Odpovědi

27.10.2002 19:10 finn
Rozbalit Rozbalit vše Sada obrazku to video
myslim, ze tohle umi treba gimp, ale nikdy jsem to nezkousel
Selmi avatar 28.10.2002 09:16 Selmi | skóre: 17 | Košice
Rozbalit Rozbalit vše Sada obrazku to video
mencoder (www.mplayerhq.hu) treba pozriet dokumentaciu, ale ja pouzivam toto a zatial som bol uplne spokojny
28.10.2002 10:33 Michal Švanda | skóre: 19 | blog: vlkovo
Rozbalit Rozbalit vše Sada obrazku to video
Zkusil jsem tuto moznost a skoncilo to neopravnenym pristupem do pameti a to velmi brzy po spusteni :-( Libovolno, zda poustim v X nebo v konzoli. Nicmene tato moznost je dost zajimava.
Nemuze to souviset s prekladem v GCC 2.96?
28.10.2002 21:48 Michal Švanda | skóre: 19 | blog: vlkovo
Rozbalit Rozbalit vše Sada obrazku to video
Tak tohle uz jsem vyresil. Prechod na GCC 3.0.4 a je to, uz to pristupuje do pameti zcela opravnene. :-) Uz se s tim nejak snad poperu, jen musim MEncoder presvedcit, ze nechci u obrazku menit rozmery z 400x400 na 100x400. ;-)

Kazdopadne diky za radu!

28.10.2002 18:15 Arnost
Rozbalit Rozbalit vše Sada obrazku to video
mam pocit ze ffmpeg (ffmpeg.sf.net)
28.10.2002 21:09 Michal Švanda | skóre: 19 | blog: vlkovo
Rozbalit Rozbalit vše Sada obrazku to video
Diky za radu, ale :-( :

[michal@eleanor jpg]$ ffmpeg -r 0.04 -i %04d.jpg ./a.mpg
mjpeg: JFIF header found (version: 1.1)
Input #0, jpeg, from '%04d.jpg':
Stream #0.0: Video: mjpeg, 400x400, 0.04 fps
Output #0, mpeg, to './a.mpg':
Stream #0.0: Video: mpeg1video, 400x400, 0.04 fps, q=2-31, 200 kb/s
Stream mapping:
Stream #0.0 -> #0.0
Press [q] to stop encoding
mjpeg: JFIF header found (version: 1.1)
Neoprávněný přístup do paměti (SIGSEGV) (core dumped)

Totez chovani jako s pouzitim mencoderu. Je to uz nejake podezrele. Netusi nekdo, co se to deje? Pouzivam RH7.1, GCC 2.96-85, AMD K6-III-400 MHz, jadro 2.4.9-34.

Selmi avatar 29.10.2002 09:15 Selmi | skóre: 17 | Košice
Rozbalit Rozbalit vše Sada obrazku to video
nepouzivaj gcc 2.96 :-( mimochodom mencoder neni jediny program ktory ma problemy, takisto sa zosype lame, niektore verzie wine,...
29.10.2002 13:20 Michal Švanda | skóre: 19 | blog: vlkovo
Rozbalit Rozbalit vše Sada obrazku to video
Prekompiloval jsem ffmpeg s pomoci gcc 3.0.4 a jeho chovani se nezmenilo, cili havaruje. MEncoder ale funguje korektne.

Založit nové vláknoNahoru

Tiskni Sdílej: Linkuj Jaggni to Vybrali.sme.sk Google Del.icio.us Facebook

ISSN 1214-1267   www.czech-server.cz
© 1999-2015 Nitemedia s. r. o. Všechna práva vyhrazena.