abclinuxu.cz AbcLinuxu.cz itbiz.cz ITBiz.cz HDmag.cz HDmag.cz abcprace.cz AbcPráce.cz
AbcLinuxu hledá autory!
Inzerujte na AbcPráce.cz od 950 Kč
Rozšířené hledání
×
dnes 20:56 | Pozvánky
V úterý 28. dubna se koná další Prague Containers Meetup. Přijďte si zopakovat, jak psát kvalitnější Dockerfile a jaké novinky a ulehčení přináší ansible-container, který vám umožní spravovat celý životní cyklus vašeho kontejneru. Místo konání: Concur, Bucharova 11, Praha-Stodůlky
little-drunk-jesus | Komentářů: 0
dnes 17:00 | Nová verze

Po půl roce od vydání verze 3.22 bylo vydáno GNOME ve verzi 3.24 s kódovým názvem Portland. Vydání obsahuje 28 459 změn od přibližně 753 přispěvatelů. Z novinek lze zmínit funkci noční světlo, přepracovaná nastavení, aplikaci Recepty, zdokonalenou oblast pro upozornění nebo zdokonalený webový prohlížeč. Podrobnosti i s náhledy v poznámkách k vydání a v novinkách pro vývojáře a správce systémů.

Ladislav Hagara | Komentářů: 3
dnes 11:55 | Humor

Majitelé koček by měli být obezřetní při používání desktopového prostředí XFCE ve výchozím nastavení. Používání XFCE může mást jejich kočky a vést k poškrábání displeje. Jedná se o chybu 12117. K dispozici je již patch.

Ladislav Hagara | Komentářů: 17
včera 15:55 | Nová verze

Byla vydána verze 7.5 sady aplikací pro SSH komunikaci OpenSSH. Jedná se o opravné vydání. Volba UsePrivilegeSeparation v sshd_config se stala zastaralou (deprecated). Upozornit lze na změnu formátu log záznamů. Novou verzi OpenSSH již nelze přeložit s upstreamem nepodporovanými verzemi OpenSSL.

Ladislav Hagara | Komentářů: 0
včera 14:44 | Nová verze

Byla vydána verze 5.1.0 svobodného integrovaného vývojového prostředí KDevelop. Z novinek lze zdůraznit podporu LLDB. Programátoři mohou nově ladit své programy pomocí GDB nebo LLDB MI. Jedná se o jeden z výsledků Google Summer of Code (GSoC 2016). Zdrojové kódy lze nově přímo z menu KDevelopu analyzovat pomocí nástroje Cppcheck. Přibyla podpora OpenCL. Vylepšena byla podpora programovacího jazyka Python. Přímo z menu lze měnit barevná schémata KDevelopu.

Ladislav Hagara | Komentářů: 6
včera 08:33 | Komunita

Emulátor terminálu Terminix byl s verzí 1.5.4 přejmenován na Tilix. Název Terminix se nelíbil společnosti Terminix, jež má registrovanou ochrannou známku Terminix. Společnost Terminix se zabývá hubením škůdců. Emulátor terminálu Tilix je naprogramován v programovacím jazyce D a využívá GtkD, což je rozšíření ke knihovně GTK+ pro D.

Ladislav Hagara | Komentářů: 7
20.3. 17:55 | Zajímavý software

Bill Zissimopoulos vydal po 16 měsících vývoje WinFsp ve verzi 2017. Jedná se o Windows File System Proxy aneb FUSE pro Windows. Díky WinFsp a SSHFS-Win si i uživatelé Windows mohou připojit vzdálené souborové systémy prostřednictvím šifrovaného spojení SSH (SSHFS). Zdrojové kódy WinFsp jsou k dispozici na GitHubu pod licencí GPLv3 [reddit].

Ladislav Hagara | Komentářů: 13
20.3. 16:44 | Pozvánky

Brněnská pobočka Red Hatu otevře opět po roce dveře studentům a všem zájemcům z řad veřejnosti. Připravena je řada přednášek, workshopů a kódovacích soutěží. Akce se koná dne 5. dubna 2017 od 13 do 19 hodin na adrese Purkyňova 111, Brno v Technologickém parku. Detaily naleznete na webu události a na Facebook stránce.

… více »
Jary | Komentářů: 2
20.3. 16:36 | Nová verze

Byla vydána verze 0.36.0 programovacího jazyka Vala (Wikipedie). Přehled novinek a seznam opravených chyb v souboru NEWS v repozitáři se zdrojovými kódy [reddit].

Ladislav Hagara | Komentářů: 0
19.3. 22:33 | Zajímavý software

Byla vydána pre-alpha verze simulátoru skládání počítačů PC Building Simulator. Simulátor je postaven nad multiplatformním herním enginem Unity a ke stažení je také pro Linux. Ukázka na YouTube.

Ladislav Hagara | Komentářů: 140
Jak se stavíte k trendu ztenčování přenosných zařízení (smartphony, notebooky)?
 (14%)
 (2%)
 (72%)
 (3%)
 (10%)
Celkem 914 hlasů
 Komentářů: 72, poslední 1.3. 11:16
    Rozcestník

    Dotaz: Sada obrazku to video

    27.10.2002 18:56 Michal Svanda
    Sada obrazku to video
    Přečteno: 89×
    Ahoj. Potreboval bych nejaky soft, ktery ze sady obrazku (cca 400 snimku) umi udelat video v nejakem a vseobecne pouzitelnem formatu (avi, mpeg, ...). Experimenty s mpeg_encode nedavaji skoro zadne vysledky. Dekuji!

    Odpovědi

    27.10.2002 19:10 finn
    Rozbalit Rozbalit vše Sada obrazku to video
    myslim, ze tohle umi treba gimp, ale nikdy jsem to nezkousel
    Selmi avatar 28.10.2002 09:16 Selmi | skóre: 17 | Košice
    Rozbalit Rozbalit vše Sada obrazku to video
    mencoder (www.mplayerhq.hu) treba pozriet dokumentaciu, ale ja pouzivam toto a zatial som bol uplne spokojny
    28.10.2002 10:33 Michal Švanda | skóre: 19 | blog: vlkovo
    Rozbalit Rozbalit vše Sada obrazku to video
    Zkusil jsem tuto moznost a skoncilo to neopravnenym pristupem do pameti a to velmi brzy po spusteni :-( Libovolno, zda poustim v X nebo v konzoli. Nicmene tato moznost je dost zajimava.
    Nemuze to souviset s prekladem v GCC 2.96?
    28.10.2002 21:48 Michal Švanda | skóre: 19 | blog: vlkovo
    Rozbalit Rozbalit vše Sada obrazku to video
    Tak tohle uz jsem vyresil. Prechod na GCC 3.0.4 a je to, uz to pristupuje do pameti zcela opravnene. :-) Uz se s tim nejak snad poperu, jen musim MEncoder presvedcit, ze nechci u obrazku menit rozmery z 400x400 na 100x400. ;-)

    Kazdopadne diky za radu!

    28.10.2002 18:15 Arnost
    Rozbalit Rozbalit vše Sada obrazku to video
    mam pocit ze ffmpeg (ffmpeg.sf.net)
    28.10.2002 21:09 Michal Švanda | skóre: 19 | blog: vlkovo
    Rozbalit Rozbalit vše Sada obrazku to video
    Diky za radu, ale :-( :

    [michal@eleanor jpg]$ ffmpeg -r 0.04 -i %04d.jpg ./a.mpg
    mjpeg: JFIF header found (version: 1.1)
    Input #0, jpeg, from '%04d.jpg':
    Stream #0.0: Video: mjpeg, 400x400, 0.04 fps
    Output #0, mpeg, to './a.mpg':
    Stream #0.0: Video: mpeg1video, 400x400, 0.04 fps, q=2-31, 200 kb/s
    Stream mapping:
    Stream #0.0 -> #0.0
    Press [q] to stop encoding
    mjpeg: JFIF header found (version: 1.1)
    Neoprávněný přístup do paměti (SIGSEGV) (core dumped)

    Totez chovani jako s pouzitim mencoderu. Je to uz nejake podezrele. Netusi nekdo, co se to deje? Pouzivam RH7.1, GCC 2.96-85, AMD K6-III-400 MHz, jadro 2.4.9-34.

    Selmi avatar 29.10.2002 09:15 Selmi | skóre: 17 | Košice
    Rozbalit Rozbalit vše Sada obrazku to video
    nepouzivaj gcc 2.96 :-( mimochodom mencoder neni jediny program ktory ma problemy, takisto sa zosype lame, niektore verzie wine,...
    29.10.2002 13:20 Michal Švanda | skóre: 19 | blog: vlkovo
    Rozbalit Rozbalit vše Sada obrazku to video
    Prekompiloval jsem ffmpeg s pomoci gcc 3.0.4 a jeho chovani se nezmenilo, cili havaruje. MEncoder ale funguje korektne.

    Založit nové vláknoNahoru

    Tiskni Sdílej: Linkuj Jaggni to Vybrali.sme.sk Google Del.icio.us Facebook

    ISSN 1214-1267   www.czech-server.cz
    © 1999-2015 Nitemedia s. r. o. Všechna práva vyhrazena.