abclinuxu.cz AbcLinuxu.cz itbiz.cz ITBiz.cz HDmag.cz HDmag.cz abcprace.cz AbcPráce.cz
AbcLinuxu hledá autory!
Inzerujte na AbcPráce.cz od 950 Kč
Rozšířené hledání
×
dnes 01:33 | Nová verze

Po šesti letech od vydání verze 1.0 byla vydána verze 2.0 multiplatformního editoru tagů MusicBrainz Picard (Wikipedie). Přehled novinek, vylepšení a oprav v changelogu.

Ladislav Hagara | Komentářů: 0
včera 16:22 | Nová verze Ladislav Hagara | Komentářů: 6
včera 15:00 | Komunita

Dnes končí podpora Ubuntu 17.10 Artful Aardvark. Uživatelům je doporučen přechod na Ubuntu 18.04 Bionic Beaver s prodlouženou podporou do roku 2023. Podpora standardních verzí Ubuntu je 9 měsíců. Verze 17.10 byla vydána 19. října 2017.

Ladislav Hagara | Komentářů: 11
včera 13:33 | Bezpečnostní upozornění

Společnost Oracle vydala čtvrtletní bezpečnostní aktualizaci svých softwarových produktů (CPU, Critical Patch Update). Opraveno bylo celkově 334 bezpečnostních chyb. V Oracle Java SE je například opraveno 8 bezpečnostních chyb. Všechny jsou vzdáleně zneužitelné bez autentizace. V Oracle MySQL je opraveno 31 bezpečnostních chyb. Vzdáleně zneužitelných bez autentizace je 7 z nich.

Ladislav Hagara | Komentářů: 0
včera 13:11 | Zajímavý software

Nick Clifton zveřejnil na blogu společnosti Red Hat věnujícímu se počítačové bezpečnosti nástroj, pomocí kterého lze ověřit, zda jsou binární spustitelné soubory odolné vůči variantě 1 bezpečnostní chyby Spectre v procesorech.

Ladislav Hagara | Komentářů: 0
včera 03:00 | Nová verze

Po více než roce vývoje od vydání verze 1.12 byla vydána nová verze 1.13 Java edice počítačové hry Minecraft (Wikipedie). Kódový název nejnovější verze je Update Aquatic. Přehled novinek v oficiálním oznámení o vydání. Detailní přehled novinek na Gamepedii a na YouTube.

Ladislav Hagara | Komentářů: 4
18.7. 23:55 | Nová verze

Společnost Epic Games vydala verzi 4.20 svého proprietárního multiplatformního herního enginu Unreal Engine (Wikipedie). Přehled novinek i s celou řadou obrázků a videi v oznámení na blogu.

Ladislav Hagara | Komentářů: 0
18.7. 15:55 | IT novinky

Evropská komise uložila (pdf) společnosti Google pokutu ve výši 4,34 miliardy eur za porušení antimonopolních předpisů EU. Společnost Google ukládala od roku 2011 výrobcům zařízení Android a provozovatelům mobilních sítí protiprávní omezení, aby upevnila dominantní postavení svých produktů zaměřených na všeobecné vyhledávání na internetu.

Ladislav Hagara | Komentářů: 25
18.7. 13:55 | Zajímavý software

Byl vydán REAPER (Wikipedie) ve verzi 5.93. Jedná se o proprietární digitální pracovní stanici pro práci s audiem (DAW). Novinkou je experimentální linuxový port [reddit].

Ladislav Hagara | Komentářů: 2
18.7. 13:11 | Zajímavý software

Příspěvek na blogu Qt informuje, že Qt pro Python aneb modul PySide2 je již k dispozici v PyPI (Python Package Index). PySide2 je portací PySide na Qt 5 [Hacker News].

Ladislav Hagara | Komentářů: 2
Jak čtete delší texty z webových stránek?
 (77%)
 (20%)
 (5%)
 (7%)
 (2%)
 (10%)
Celkem 370 hlasů
 Komentářů: 40, poslední 29.6. 10:21
    Rozcestník

    Dotaz: Sada obrazku to video

    27.10.2002 18:56 Michal Svanda
    Sada obrazku to video
    Přečteno: 89×
    Ahoj. Potreboval bych nejaky soft, ktery ze sady obrazku (cca 400 snimku) umi udelat video v nejakem a vseobecne pouzitelnem formatu (avi, mpeg, ...). Experimenty s mpeg_encode nedavaji skoro zadne vysledky. Dekuji!

    Odpovědi

    27.10.2002 19:10 finn
    Rozbalit Rozbalit vše Sada obrazku to video
    myslim, ze tohle umi treba gimp, ale nikdy jsem to nezkousel
    Selmi avatar 28.10.2002 09:16 Selmi | skóre: 17 | Košice
    Rozbalit Rozbalit vše Sada obrazku to video
    mencoder (www.mplayerhq.hu) treba pozriet dokumentaciu, ale ja pouzivam toto a zatial som bol uplne spokojny
    28.10.2002 10:33 Michal Švanda | skóre: 19 | blog: vlkovo
    Rozbalit Rozbalit vše Sada obrazku to video
    Zkusil jsem tuto moznost a skoncilo to neopravnenym pristupem do pameti a to velmi brzy po spusteni :-( Libovolno, zda poustim v X nebo v konzoli. Nicmene tato moznost je dost zajimava.
    Nemuze to souviset s prekladem v GCC 2.96?
    28.10.2002 21:48 Michal Švanda | skóre: 19 | blog: vlkovo
    Rozbalit Rozbalit vše Sada obrazku to video
    Tak tohle uz jsem vyresil. Prechod na GCC 3.0.4 a je to, uz to pristupuje do pameti zcela opravnene. :-) Uz se s tim nejak snad poperu, jen musim MEncoder presvedcit, ze nechci u obrazku menit rozmery z 400x400 na 100x400. ;-)

    Kazdopadne diky za radu!

    28.10.2002 18:15 Arnost
    Rozbalit Rozbalit vše Sada obrazku to video
    mam pocit ze ffmpeg (ffmpeg.sf.net)
    28.10.2002 21:09 Michal Švanda | skóre: 19 | blog: vlkovo
    Rozbalit Rozbalit vše Sada obrazku to video
    Diky za radu, ale :-( :

    [michal@eleanor jpg]$ ffmpeg -r 0.04 -i %04d.jpg ./a.mpg
    mjpeg: JFIF header found (version: 1.1)
    Input #0, jpeg, from '%04d.jpg':
    Stream #0.0: Video: mjpeg, 400x400, 0.04 fps
    Output #0, mpeg, to './a.mpg':
    Stream #0.0: Video: mpeg1video, 400x400, 0.04 fps, q=2-31, 200 kb/s
    Stream mapping:
    Stream #0.0 -> #0.0
    Press [q] to stop encoding
    mjpeg: JFIF header found (version: 1.1)
    Neoprávněný přístup do paměti (SIGSEGV) (core dumped)

    Totez chovani jako s pouzitim mencoderu. Je to uz nejake podezrele. Netusi nekdo, co se to deje? Pouzivam RH7.1, GCC 2.96-85, AMD K6-III-400 MHz, jadro 2.4.9-34.

    Selmi avatar 29.10.2002 09:15 Selmi | skóre: 17 | Košice
    Rozbalit Rozbalit vše Sada obrazku to video
    nepouzivaj gcc 2.96 :-( mimochodom mencoder neni jediny program ktory ma problemy, takisto sa zosype lame, niektore verzie wine,...
    29.10.2002 13:20 Michal Švanda | skóre: 19 | blog: vlkovo
    Rozbalit Rozbalit vše Sada obrazku to video
    Prekompiloval jsem ffmpeg s pomoci gcc 3.0.4 a jeho chovani se nezmenilo, cili havaruje. MEncoder ale funguje korektne.

    Založit nové vláknoNahoru

    Tiskni Sdílej: Linkuj Jaggni to Vybrali.sme.sk Google Del.icio.us Facebook

    ISSN 1214-1267   www.czech-server.cz
    © 1999-2015 Nitemedia s. r. o. Všechna práva vyhrazena.