abclinuxu.cz AbcLinuxu.cz itbiz.cz ITBiz.cz HDmag.cz HDmag.cz abcprace.cz AbcPráce.cz
AbcLinuxu hledá autory!
Inzerujte na AbcPráce.cz od 950 Kč
Rozšířené hledání
×

dnes 12:55 | Nová verze

The Document Foundation oznámila na svém blogu vydání verze 5.4 svobodného kancelářského balíku LibreOffice. Z novinek lze zmínit například podporu podepisování ODF dokumentů pomocí OpenPGP klíčů. Podrobnosti v poznámkách k vydání a na YouTube.

Ladislav Hagara | Komentářů: 0
dnes 12:11 | Zajímavý článek

Bylo vydáno (pdf) již šedesáté číslo stostránkového anglicky psaného časopisu MagPi věnovanému Raspberry Pi a projektům postaveným na tomto jednodeskovém počítači. K dispozici je také jako papírový časopis za 5,99 £.

Ladislav Hagara | Komentářů: 1
dnes 02:44 | Nová verze

Byl vydán Sway ve verzi 0.14. Přehled opravených chyb, změn a novinek v nejnovější verzi tohoto dlaždicového (tiling) správce oken pro Wayland kompatibilního s i3 na GitHubu. Do vývoje se zapojilo 12 vývojářů [reddit].

Ladislav Hagara | Komentářů: 0
včera 22:33 | Nová verze

Byla vydána verze 4.0 svobodného systému pro detekci a prevenci průniků a monitorování bezpečnosti počítačových sítí Suricata (Wikipedie). Přehled novinek v poznámkách k vydání a v aktualizované dokumentaci. Ve dnech 15. až 17. listopadu proběhne v Praze konference vývojářů a uživatelů Suricaty SuriCon 2017.

Ladislav Hagara | Komentářů: 0
včera 17:11 | Nová verze

Byla vydána dvaadvacátá alfa verze svobodné historické realtimové strategie 0 A.D. (Wikipedie). Kódový název této nejnovější verze je Venustas. Představení novinek také na YouTube.

Ladislav Hagara | Komentářů: 3
včera 11:33 | Zajímavý článek

Radek Vokál v článku Boltron – náhled modulárního operačního systému (en) na MojeFedora.cz představuje a informuje o možnosti vyzkoušet si Boltron, prototyp modulární distribuce. Pro Fedoru 26 je k dispozici testovací docker kontejner, který obsahuje modifikovanou verzi správce balíčků DNF, který na pozadí pracuje s moduly.

Ladislav Hagara | Komentářů: 3
včera 07:00 | Nová verze

ZFS on Linux, tj. implementace OpenZFS (Wikipedie) na Linuxu, byl vydán ve verzi 0.7.0. Přehled novinek v diskusním listu zfs-announce nebo na GitHubu. Nejnovější ZFS on Linux je kompatibilní s Linuxem 2.6.32 až 4.12.

Ladislav Hagara | Komentářů: 0
včera 01:44 | IT novinky

V Las Vegas končí bezpečnostní konference Black Hat USA 2017 (Twitter) a začíná bezpečnostní konference DEF CON 25 (Twitter). V rámci Black Hat budou vyhlášeny výsledky letošní Pwnie Awards (Twitter). Pwnie Awards oceňují to nejlepší, ale i to nejhorší z IT bezpečnosti (bezpečnostní Oscar a Malina v jednom). V kategorii "Lamest Vendor Response" byl například nominován také Lennart Poettering za jeho přístup k řešení bezpečnostních chyb v systemd, viz například chyba s uživatelem 0day.

Ladislav Hagara | Komentářů: 5
včera 00:22 | Bezpečnostní upozornění

Nitay Artenstein z Exodus Intelligence se v příspěvku na blogu společnosti podrobně věnuje bezpečností chybě Broadpwn (CVE-2017-9417). Její analýzu provedl také Zhuowei Zhang na blogu Booster Ok. Jedná se o chybu ve firmwaru Wi-Fi chipsetů BCM43xx od Broadcomu. Útočník může vzdáleně získat kontrolu nad zařízením. Chyba byla již opravena v macOS, iOS i Androidu [Hacker News].

Ladislav Hagara | Komentářů: 4
26.7. 22:55 | IT novinky

Intel končí s vývojovými deskami Joule, Edison, Galileo a také s Arduino 101 a Curie.

Ladislav Hagara | Komentářů: 1
Těžíte nějakou kryptoměnu?
 (5%)
 (2%)
 (20%)
 (74%)
Celkem 133 hlasů
 Komentářů: 8, poslední včera 21:30
    Rozcestník

    Dotaz: Sada obrazku to video

    27.10.2002 18:56 Michal Svanda
    Sada obrazku to video
    Přečteno: 89×
    Ahoj. Potreboval bych nejaky soft, ktery ze sady obrazku (cca 400 snimku) umi udelat video v nejakem a vseobecne pouzitelnem formatu (avi, mpeg, ...). Experimenty s mpeg_encode nedavaji skoro zadne vysledky. Dekuji!

    Odpovědi

    27.10.2002 19:10 finn
    Rozbalit Rozbalit vše Sada obrazku to video
    myslim, ze tohle umi treba gimp, ale nikdy jsem to nezkousel
    Selmi avatar 28.10.2002 09:16 Selmi | skóre: 17 | Košice
    Rozbalit Rozbalit vše Sada obrazku to video
    mencoder (www.mplayerhq.hu) treba pozriet dokumentaciu, ale ja pouzivam toto a zatial som bol uplne spokojny
    28.10.2002 10:33 Michal Švanda | skóre: 19 | blog: vlkovo
    Rozbalit Rozbalit vše Sada obrazku to video
    Zkusil jsem tuto moznost a skoncilo to neopravnenym pristupem do pameti a to velmi brzy po spusteni :-( Libovolno, zda poustim v X nebo v konzoli. Nicmene tato moznost je dost zajimava.
    Nemuze to souviset s prekladem v GCC 2.96?
    28.10.2002 21:48 Michal Švanda | skóre: 19 | blog: vlkovo
    Rozbalit Rozbalit vše Sada obrazku to video
    Tak tohle uz jsem vyresil. Prechod na GCC 3.0.4 a je to, uz to pristupuje do pameti zcela opravnene. :-) Uz se s tim nejak snad poperu, jen musim MEncoder presvedcit, ze nechci u obrazku menit rozmery z 400x400 na 100x400. ;-)

    Kazdopadne diky za radu!

    28.10.2002 18:15 Arnost
    Rozbalit Rozbalit vše Sada obrazku to video
    mam pocit ze ffmpeg (ffmpeg.sf.net)
    28.10.2002 21:09 Michal Švanda | skóre: 19 | blog: vlkovo
    Rozbalit Rozbalit vše Sada obrazku to video
    Diky za radu, ale :-( :

    [michal@eleanor jpg]$ ffmpeg -r 0.04 -i %04d.jpg ./a.mpg
    mjpeg: JFIF header found (version: 1.1)
    Input #0, jpeg, from '%04d.jpg':
    Stream #0.0: Video: mjpeg, 400x400, 0.04 fps
    Output #0, mpeg, to './a.mpg':
    Stream #0.0: Video: mpeg1video, 400x400, 0.04 fps, q=2-31, 200 kb/s
    Stream mapping:
    Stream #0.0 -> #0.0
    Press [q] to stop encoding
    mjpeg: JFIF header found (version: 1.1)
    Neoprávněný přístup do paměti (SIGSEGV) (core dumped)

    Totez chovani jako s pouzitim mencoderu. Je to uz nejake podezrele. Netusi nekdo, co se to deje? Pouzivam RH7.1, GCC 2.96-85, AMD K6-III-400 MHz, jadro 2.4.9-34.

    Selmi avatar 29.10.2002 09:15 Selmi | skóre: 17 | Košice
    Rozbalit Rozbalit vše Sada obrazku to video
    nepouzivaj gcc 2.96 :-( mimochodom mencoder neni jediny program ktory ma problemy, takisto sa zosype lame, niektore verzie wine,...
    29.10.2002 13:20 Michal Švanda | skóre: 19 | blog: vlkovo
    Rozbalit Rozbalit vše Sada obrazku to video
    Prekompiloval jsem ffmpeg s pomoci gcc 3.0.4 a jeho chovani se nezmenilo, cili havaruje. MEncoder ale funguje korektne.

    Založit nové vláknoNahoru

    Tiskni Sdílej: Linkuj Jaggni to Vybrali.sme.sk Google Del.icio.us Facebook

    ISSN 1214-1267   www.czech-server.cz
    © 1999-2015 Nitemedia s. r. o. Všechna práva vyhrazena.