abclinuxu.cz AbcLinuxu.cz itbiz.cz ITBiz.cz HDmag.cz HDmag.cz abcprace.cz AbcPráce.cz
AbcLinuxu hledá autory!
Inzerujte na AbcPráce.cz od 950 Kč
Rozšířené hledání
×
dnes 17:00 | Nová verze

Simon Long představil na blogu Raspberry Pi novou verzi 2018-11-13 linuxové distribuce Raspbian určené především pro jednodeskové miniaturní počítače Raspberry Pi. Přehled novinek v poznámkách k vydání. Společně s Raspbianem byl aktualizován také instalační nástroj NOOBS (New Out Of the Box Software). Simon Long z novinek zdůrazňuje multimediální přehrávač VLC s hardwarovou akcelerací nebo vývojové prostředí pro Python Thonny ve verzi 3. Ke stažení jsou nově také lite a full obrazy Raspbianu. Raspbian Full opět obsahuje software Mathematica.

Ladislav Hagara | Komentářů: 0
dnes 02:00 | Nová verze

Krátce po vydání Debianu 9.6 oznámil Tomáš Matějíček vydání verze 9.6 dnes již na Debianu založené živé linuxové distribuce Slax. Vedle vylepšení z Debianu je opraveno několik malých chyb. Opraveno bylo bootování pomocí PXE. Novinkou je skript s názvem pxe pro spuštění vlastního PXE serveru.

Ladislav Hagara | Komentářů: 0
dnes 01:00 | Nová verze

Byla vydána beta verze Red Hat Enterprise Linuxu 8. Přehled novinek v příspěvku na blogu a v poznámkách k vydání.

Ladislav Hagara | Komentářů: 2
včera 13:44 | IT novinky

Nadace Raspberry Pi na svém blogu představila (YouTube) jednodeskový počítač Raspberry Pi 3 Model A+. Toto menší Raspberry Pi 3 lze koupit za 25 dolarů.

Ladislav Hagara | Komentářů: 0
včera 06:00 | Pozvánky

Dnes a zítra probíhá v Praze konference Internet a Technologie 18 pořádaná sdružením CZ.NIC. Sledovat ji lze online.

Ladislav Hagara | Komentářů: 0
včera 01:11 | Komunita

V září proběhl v Madridu Open Source CubeSat Workshop 2018. Videozáznamy přednášek byly zveřejněny na YouTube.

Ladislav Hagara | Komentářů: 1
včera 00:55 | Zajímavý software

Společnost Amazon představila Amazon Corretto. Jedná se o fork a distribuci OpenJDK (Open Java Development Kit) s dlouhodobou podporou od Amazonu. Ke stažení je preview verze 8. V plánu je také verze 11. Zdrojové kódy jsou k dispozici na GitHubu. Jedná se o reakci na oznámení společnosti Oracle, že bezplatné aktualizace její Javy nebude možné po lednu 2019 používat komerčně. Název Coretto vychází z Caffè corretto, tj. espressa s alkoholem.

Ladislav Hagara | Komentářů: 7
14.11. 12:44 | Nová verze

Po roce vývoje od vydání verze 5.2.0 byla vydána verze 5.3.0 svobodného integrovaného vývojového prostředí KDevelop (Wikipedie). Novinkou je analyzátor Clazy. Vylepšena byla podpora programovacích jazyků C++, PHP a Python. Ke stažení a k vyzkoušení je i binární balíček s KDevelopem 5.3.0 ve formátu AppImage.

Ladislav Hagara | Komentářů: 0
14.11. 05:55 | Komunita

Ubuntu 19.04 bude mít kódové jméno Disco Dingo. Dle oznámení v diskusním listu ubuntu-devel-announce je ve vývojové verzi Disco Dinga výchozím Pythonem 3 verze 3.7. Perl byl aktualizován na verzi 5.28. OpenSSL 1.0 bude nahrazeno OpenSSL 1.1.1 LTS. Nové instalace Dinga budou mít sloučený /usr. Stane se tak 7 let po sloučení /usr ve Fedoře nebo Arch Linuxu.

Ladislav Hagara | Komentářů: 9
14.11. 02:22 | IT novinky

V pondělí a úterý proběhl v San Franciscu Chrome Dev Summit 2018. Přehled dění v příspěvcích na Chromium Blogu. Videozáznamy přednášek na YouTube. Představen byl například web pro webové vývojáře web.dev nebo rozšíření webového prohlížeče Chrome s názvem VisBug (YouTube) určené pro webdesignery. Slíbená je podpora Firefoxu.

Ladislav Hagara | Komentářů: 0
Jak nejčastěji otevíráte dokumenty na počítači?
 (90%)
 (4%)
 (6%)
Celkem 100 hlasů
 Komentářů: 9, poslední včera 22:46
Rozcestník

Dotaz: Sada obrazku to video

27.10.2002 18:56 Michal Svanda
Sada obrazku to video
Přečteno: 89×
Ahoj. Potreboval bych nejaky soft, ktery ze sady obrazku (cca 400 snimku) umi udelat video v nejakem a vseobecne pouzitelnem formatu (avi, mpeg, ...). Experimenty s mpeg_encode nedavaji skoro zadne vysledky. Dekuji!

Odpovědi

27.10.2002 19:10 finn
Rozbalit Rozbalit vše Sada obrazku to video
myslim, ze tohle umi treba gimp, ale nikdy jsem to nezkousel
Selmi avatar 28.10.2002 09:16 Selmi | skóre: 17 | Košice
Rozbalit Rozbalit vše Sada obrazku to video
mencoder (www.mplayerhq.hu) treba pozriet dokumentaciu, ale ja pouzivam toto a zatial som bol uplne spokojny
28.10.2002 10:33 Michal Švanda | skóre: 19 | blog: vlkovo
Rozbalit Rozbalit vše Sada obrazku to video
Zkusil jsem tuto moznost a skoncilo to neopravnenym pristupem do pameti a to velmi brzy po spusteni :-( Libovolno, zda poustim v X nebo v konzoli. Nicmene tato moznost je dost zajimava.
Nemuze to souviset s prekladem v GCC 2.96?
28.10.2002 21:48 Michal Švanda | skóre: 19 | blog: vlkovo
Rozbalit Rozbalit vše Sada obrazku to video
Tak tohle uz jsem vyresil. Prechod na GCC 3.0.4 a je to, uz to pristupuje do pameti zcela opravnene. :-) Uz se s tim nejak snad poperu, jen musim MEncoder presvedcit, ze nechci u obrazku menit rozmery z 400x400 na 100x400. ;-)

Kazdopadne diky za radu!

28.10.2002 18:15 Arnost
Rozbalit Rozbalit vše Sada obrazku to video
mam pocit ze ffmpeg (ffmpeg.sf.net)
28.10.2002 21:09 Michal Švanda | skóre: 19 | blog: vlkovo
Rozbalit Rozbalit vše Sada obrazku to video
Diky za radu, ale :-( :

[michal@eleanor jpg]$ ffmpeg -r 0.04 -i %04d.jpg ./a.mpg
mjpeg: JFIF header found (version: 1.1)
Input #0, jpeg, from '%04d.jpg':
Stream #0.0: Video: mjpeg, 400x400, 0.04 fps
Output #0, mpeg, to './a.mpg':
Stream #0.0: Video: mpeg1video, 400x400, 0.04 fps, q=2-31, 200 kb/s
Stream mapping:
Stream #0.0 -> #0.0
Press [q] to stop encoding
mjpeg: JFIF header found (version: 1.1)
Neoprávněný přístup do paměti (SIGSEGV) (core dumped)

Totez chovani jako s pouzitim mencoderu. Je to uz nejake podezrele. Netusi nekdo, co se to deje? Pouzivam RH7.1, GCC 2.96-85, AMD K6-III-400 MHz, jadro 2.4.9-34.

Selmi avatar 29.10.2002 09:15 Selmi | skóre: 17 | Košice
Rozbalit Rozbalit vše Sada obrazku to video
nepouzivaj gcc 2.96 :-( mimochodom mencoder neni jediny program ktory ma problemy, takisto sa zosype lame, niektore verzie wine,...
29.10.2002 13:20 Michal Švanda | skóre: 19 | blog: vlkovo
Rozbalit Rozbalit vše Sada obrazku to video
Prekompiloval jsem ffmpeg s pomoci gcc 3.0.4 a jeho chovani se nezmenilo, cili havaruje. MEncoder ale funguje korektne.

Založit nové vláknoNahoru

Tiskni Sdílej: Linkuj Jaggni to Vybrali.sme.sk Google Del.icio.us Facebook

ISSN 1214-1267   www.czech-server.cz
© 1999-2015 Nitemedia s. r. o. Všechna práva vyhrazena.