abclinuxu.cz AbcLinuxu.cz itbiz.cz ITBiz.cz HDmag.cz HDmag.cz abcprace.cz AbcPráce.cz
AbcLinuxu hledá autory!
Inzerujte na AbcPráce.cz od 950 Kč
Rozšířené hledání
×

dnes 08:55 | Komunita

Do 22. září probíhá v Mountain View konference XDC2017 (X.Org Developer's Conference). Na programu je řada zajímavých přednášek. Sledovat je lze online. K dispozici je záznam přednášek ze včerejšího dne.

Ladislav Hagara | Komentářů: 0
včera 17:33 | Nová verze

Byla vydána nová stabilní verze 1.12 (1.12.955.36) webového prohlížeče Vivaldi (Wikipedie). Z novinek vývojáři zdůrazňují možnost zobrazení metadat u digitálních fotografií, vylepšený panel stahování a omezení sytosti barvy zdůraznění (YouTube). Nejnovější Vivaldi je postaveno na Chromiu 61.0.3163.91.

Ladislav Hagara | Komentářů: 33
včera 10:55 | Nová verze

Byla vydána verze 4.0 programovacího jazyka Swift (Wikipedie). Zdrojové kódy jsou k dispozici na GitHubu. Ke stažení jsou oficiální binární balíčky pro Ubuntu 16.10, Ubuntu 16.04 a Ubuntu 14.04.

Ladislav Hagara | Komentářů: 5
19.9. 23:33 | Zajímavý software

MojeFedora informuje, že PipeWire byl oficiálně oznámen (en). PipeWire bude zprostředkovávat aplikacím jednotný přístup k audiu a videu. Jedním z hlavních důvodů je možnost izolovat aplikace od audio a video zdrojů. Aplikace nebudou mít přímý přístup k hardwaru, ale budou se muset ptát multimediálního serveru PipeWire, který jim je na základě nastavených oprávnění poskytne nebo ne. V budoucnu by měl PipeWire nahradit PulseAudio.

Ladislav Hagara | Komentářů: 25
19.9. 00:55 | Zajímavý software

Společnost IBM věnovala svůj JVM (Java Virtual Machine) s názvem J9 nadaci Eclipse. Nové oficiální jméno tohoto virtuálního stroje určeného pro běh aplikací napsaných v programovacím jazyce Java je Eclipse OpenJ9 (Wikipedie). Podrobnosti v často kladených dotazech (FAQ).

Ladislav Hagara | Komentářů: 15
19.9. 00:11 | IT novinky

Mezinárodní konsorcium W3C (World Wide Web Consortium) publikovalo kontroverzní rozšíření HTML 5.1 EME (Encrypted Media Extensions) jako webový standard, tj. schválilo DRM v HTML 5.1. Mezinárodní nezisková organizace EFF (Electronic Frontier Foundation) hájící občanské svobody v digitálním světě zveřejnila na svých stránkách otevřený dopis adresovaný W3C. EFF s EME zásadně nesouhlasí a W3C opouští.

Ladislav Hagara | Komentářů: 57
18.9. 18:44 | Zajímavý projekt

Skywriter je deska umožňující snímat 3D gesta. Ben James na svých stránkách ukázal, jak lze pomocí této desky a Arduina Leonardo ovládat linuxový desktop. Videoukázka na YouTube. Ukázka kódu na GitHubu [reddit].

Ladislav Hagara | Komentářů: 4
18.9. 15:22 | Komunita

Od 8. do 10. září proběhla v Paříži konference UbuCon Europe 2017, tj. konference vývojářů a uživatelů linuxové distribuce Ubuntu. Dustin Kirkland z Canonicalu se ve své přednášce věnoval Ubuntu 18.04 LTS. Záznam přednášky byl zveřejněn na YouTube [reddit].

Ladislav Hagara | Komentářů: 1
18.9. 06:00 | Nová verze

Byla vydána verze 2.0 open source programu na kreslení grafů Veusz (Wikipedie). Z novinek je nutno zdůraznit přechod na Qt5 a PyQt5. Podrobnosti v poznámkách k vydání.

Ladislav Hagara | Komentářů: 0
17.9. 19:10 | Pozvánky

Společnost EurOpen.CZ pořádá 51. konferenci, která se bude konat 8. - 11. 10. 2017 v hotelu Vinné sklepy U Jeňoura, Prušánky - Nechory. Můžete se těšit na IoT s nádechem bezpečnosti, softwarový vývoj a optimalizace kódu, informační systémy ve státní správě a spoustu dalšího. Program konference a ceny viz: pozvanka51.pdf.

… více »
cuba | Komentářů: 0
Těžíte nějakou kryptoměnu?
 (5%)
 (3%)
 (17%)
 (75%)
Celkem 549 hlasů
 Komentářů: 22, poslední 29.8. 11:23
    Rozcestník

    Dotaz: Sada obrazku to video

    27.10.2002 18:56 Michal Svanda
    Sada obrazku to video
    Přečteno: 89×
    Ahoj. Potreboval bych nejaky soft, ktery ze sady obrazku (cca 400 snimku) umi udelat video v nejakem a vseobecne pouzitelnem formatu (avi, mpeg, ...). Experimenty s mpeg_encode nedavaji skoro zadne vysledky. Dekuji!

    Odpovědi

    27.10.2002 19:10 finn
    Rozbalit Rozbalit vše Sada obrazku to video
    myslim, ze tohle umi treba gimp, ale nikdy jsem to nezkousel
    Selmi avatar 28.10.2002 09:16 Selmi | skóre: 17 | Košice
    Rozbalit Rozbalit vše Sada obrazku to video
    mencoder (www.mplayerhq.hu) treba pozriet dokumentaciu, ale ja pouzivam toto a zatial som bol uplne spokojny
    28.10.2002 10:33 Michal Švanda | skóre: 19 | blog: vlkovo
    Rozbalit Rozbalit vše Sada obrazku to video
    Zkusil jsem tuto moznost a skoncilo to neopravnenym pristupem do pameti a to velmi brzy po spusteni :-( Libovolno, zda poustim v X nebo v konzoli. Nicmene tato moznost je dost zajimava.
    Nemuze to souviset s prekladem v GCC 2.96?
    28.10.2002 21:48 Michal Švanda | skóre: 19 | blog: vlkovo
    Rozbalit Rozbalit vše Sada obrazku to video
    Tak tohle uz jsem vyresil. Prechod na GCC 3.0.4 a je to, uz to pristupuje do pameti zcela opravnene. :-) Uz se s tim nejak snad poperu, jen musim MEncoder presvedcit, ze nechci u obrazku menit rozmery z 400x400 na 100x400. ;-)

    Kazdopadne diky za radu!

    28.10.2002 18:15 Arnost
    Rozbalit Rozbalit vše Sada obrazku to video
    mam pocit ze ffmpeg (ffmpeg.sf.net)
    28.10.2002 21:09 Michal Švanda | skóre: 19 | blog: vlkovo
    Rozbalit Rozbalit vše Sada obrazku to video
    Diky za radu, ale :-( :

    [michal@eleanor jpg]$ ffmpeg -r 0.04 -i %04d.jpg ./a.mpg
    mjpeg: JFIF header found (version: 1.1)
    Input #0, jpeg, from '%04d.jpg':
    Stream #0.0: Video: mjpeg, 400x400, 0.04 fps
    Output #0, mpeg, to './a.mpg':
    Stream #0.0: Video: mpeg1video, 400x400, 0.04 fps, q=2-31, 200 kb/s
    Stream mapping:
    Stream #0.0 -> #0.0
    Press [q] to stop encoding
    mjpeg: JFIF header found (version: 1.1)
    Neoprávněný přístup do paměti (SIGSEGV) (core dumped)

    Totez chovani jako s pouzitim mencoderu. Je to uz nejake podezrele. Netusi nekdo, co se to deje? Pouzivam RH7.1, GCC 2.96-85, AMD K6-III-400 MHz, jadro 2.4.9-34.

    Selmi avatar 29.10.2002 09:15 Selmi | skóre: 17 | Košice
    Rozbalit Rozbalit vše Sada obrazku to video
    nepouzivaj gcc 2.96 :-( mimochodom mencoder neni jediny program ktory ma problemy, takisto sa zosype lame, niektore verzie wine,...
    29.10.2002 13:20 Michal Švanda | skóre: 19 | blog: vlkovo
    Rozbalit Rozbalit vše Sada obrazku to video
    Prekompiloval jsem ffmpeg s pomoci gcc 3.0.4 a jeho chovani se nezmenilo, cili havaruje. MEncoder ale funguje korektne.

    Založit nové vláknoNahoru

    Tiskni Sdílej: Linkuj Jaggni to Vybrali.sme.sk Google Del.icio.us Facebook

    ISSN 1214-1267   www.czech-server.cz
    © 1999-2015 Nitemedia s. r. o. Všechna práva vyhrazena.