abclinuxu.cz AbcLinuxu.cz itbiz.cz ITBiz.cz HDmag.cz HDmag.cz abcprace.cz AbcPráce.cz
AbcLinuxu hledá autory!
Inzerujte na AbcPráce.cz od 950 Kč
Rozšířené hledání
×

včera 13:11 | Nová verze

Po téměř dvou letech byla vydána nová verze 4.0 linuxové distribuce Audiophile Linux (též AP-Linux-V4). Tato distribuce vychází z Arch Linuxu, používá systemd, správce oken Fluxbox a vlastní real-time jádro pro nižší latence. Z novinek můžeme jmenovat podporu nových procesorů Intel Skylake a Kaby Lake nebo možnost instalace vedle jiných OS na stejný disk. Pokud se zajímáte o přehrávání hudby v Linuxu, doporučuji návštěvu webu této

… více »
Blaazen | Komentářů: 0
27.4. 18:55 | Nová verze

Byla vydána nová stabilní verze 1.9 (1.9.818.44) webového prohlížeče Vivaldi (Wikipedie). Z novinek vývojáři zdůrazňují podporu nového vyhledávače Ecosia. Ten z příjmů z reklam podporuje výsadbu stromů po celém světě (YouTube). Nově lze přeskupovat ikonky rozšíření nebo řadit poznámky. Nejnovější Vivaldi je postaveno na Chromiu 58.0.3029.82.

Ladislav Hagara | Komentářů: 19
27.4. 17:00 | Nová verze

Byla vydána verze 3.7.0 svobodného systému pro správu obsahu (CMS) Joomla!. V oznámení o vydání (YouTube) se píše o 700 vylepšeních. Opraveno bylo také 8 bezpečnostních chyb.

Ladislav Hagara | Komentářů: 0
27.4. 08:22 | Komunita

Grsecurity (Wikipedie) je sada bezpečnostních patchů pro linuxové jádro (porovnání se SELinuxem, AppArmorem a KSPP). Od září 2015 nejsou stabilní verze těchto patchů volně k dispozici. Dle včerejšího oznámení (FAQ) nejsou s okamžitou platností volně k dispozici už ani jejich testovací verze.

Ladislav Hagara | Komentářů: 60
26.4. 23:33 | Komunita

OpenBSD 6.1 vyšlo již 11. dubna. Po dvou týdnech byla vydána i oficiální píseň. Její název je Winter of 95 a k dispozici je ve formátech MP3 a OGG.

Ladislav Hagara | Komentářů: 0
26.4. 18:55 | Nová verze

Byla vydána verze 2017.1 linuxové distribuce navržené pro digitální forenzní analýzu a penetrační testování Kali Linux. S vydáním verze 2016.1 se Kali Linux stal průběžně aktualizovanou distribucí. Aktualizovat jej lze pomocí příkazů "apt update; apt dist-upgrade; reboot".

Ladislav Hagara | Komentářů: 0
26.4. 18:22 | Nová verze

Po téměř pěti letech od vydání verze 2.00 byla vydána nová stabilní verze 2.02 systémového zavaděče GNU GRUB (GRand Unified Bootloader). Přehled novinek v souboru NEWS.

Ladislav Hagara | Komentářů: 24
26.4. 17:55 | Komunita

Vývojáři Debianu oznámili, že od 1. listopadu letošního roku nebudou jejich archivy dostupné pomocí protokolu FTP. Již v lednu oznámil ukončení podpory FTP kernel.org (The Linux Kernel Archives).

Ladislav Hagara | Komentářů: 28
26.4. 17:00 | Bezpečnostní upozornění

V oblíbeném webmailu postaveném na PHP SquirrelMail (Wikipedie) byla nalezena bezpečnostní chyba CVE-2017-7692, jež může být útočníkem zneužita ke spuštění libovolných příkazů a kompletnímu ovládnutí dotčeného serveru. Zranitelnost se týká pouze instancí, kde je pro transport používán Sendmail.

Ladislav Hagara | Komentářů: 3
26.4. 13:11 | Zajímavý článek

Soudní dvůr Evropské unie rozhodl (tisková zpráva) ve věci C-527/15: Prodej multimediálního přehrávače, který umožňuje zdarma a jednoduše zhlédnout na televizní obrazovce filmy protiprávně zpřístupněné na internetu, může představovat porušení autorského práva.

Ladislav Hagara | Komentářů: 32
Chystáte se pořídit CPU AMD Ryzen?
 (4%)
 (34%)
 (1%)
 (6%)
 (45%)
 (9%)
Celkem 340 hlasů
 Komentářů: 50, poslední 27.4. 04:06
    Rozcestník

    Dotaz: Sada obrazku to video

    27.10.2002 18:56 Michal Svanda
    Sada obrazku to video
    Přečteno: 89×
    Ahoj. Potreboval bych nejaky soft, ktery ze sady obrazku (cca 400 snimku) umi udelat video v nejakem a vseobecne pouzitelnem formatu (avi, mpeg, ...). Experimenty s mpeg_encode nedavaji skoro zadne vysledky. Dekuji!

    Odpovědi

    27.10.2002 19:10 finn
    Rozbalit Rozbalit vše Sada obrazku to video
    myslim, ze tohle umi treba gimp, ale nikdy jsem to nezkousel
    Selmi avatar 28.10.2002 09:16 Selmi | skóre: 17 | Košice
    Rozbalit Rozbalit vše Sada obrazku to video
    mencoder (www.mplayerhq.hu) treba pozriet dokumentaciu, ale ja pouzivam toto a zatial som bol uplne spokojny
    28.10.2002 10:33 Michal Švanda | skóre: 19 | blog: vlkovo
    Rozbalit Rozbalit vše Sada obrazku to video
    Zkusil jsem tuto moznost a skoncilo to neopravnenym pristupem do pameti a to velmi brzy po spusteni :-( Libovolno, zda poustim v X nebo v konzoli. Nicmene tato moznost je dost zajimava.
    Nemuze to souviset s prekladem v GCC 2.96?
    28.10.2002 21:48 Michal Švanda | skóre: 19 | blog: vlkovo
    Rozbalit Rozbalit vše Sada obrazku to video
    Tak tohle uz jsem vyresil. Prechod na GCC 3.0.4 a je to, uz to pristupuje do pameti zcela opravnene. :-) Uz se s tim nejak snad poperu, jen musim MEncoder presvedcit, ze nechci u obrazku menit rozmery z 400x400 na 100x400. ;-)

    Kazdopadne diky za radu!

    28.10.2002 18:15 Arnost
    Rozbalit Rozbalit vše Sada obrazku to video
    mam pocit ze ffmpeg (ffmpeg.sf.net)
    28.10.2002 21:09 Michal Švanda | skóre: 19 | blog: vlkovo
    Rozbalit Rozbalit vše Sada obrazku to video
    Diky za radu, ale :-( :

    [michal@eleanor jpg]$ ffmpeg -r 0.04 -i %04d.jpg ./a.mpg
    mjpeg: JFIF header found (version: 1.1)
    Input #0, jpeg, from '%04d.jpg':
    Stream #0.0: Video: mjpeg, 400x400, 0.04 fps
    Output #0, mpeg, to './a.mpg':
    Stream #0.0: Video: mpeg1video, 400x400, 0.04 fps, q=2-31, 200 kb/s
    Stream mapping:
    Stream #0.0 -> #0.0
    Press [q] to stop encoding
    mjpeg: JFIF header found (version: 1.1)
    Neoprávněný přístup do paměti (SIGSEGV) (core dumped)

    Totez chovani jako s pouzitim mencoderu. Je to uz nejake podezrele. Netusi nekdo, co se to deje? Pouzivam RH7.1, GCC 2.96-85, AMD K6-III-400 MHz, jadro 2.4.9-34.

    Selmi avatar 29.10.2002 09:15 Selmi | skóre: 17 | Košice
    Rozbalit Rozbalit vše Sada obrazku to video
    nepouzivaj gcc 2.96 :-( mimochodom mencoder neni jediny program ktory ma problemy, takisto sa zosype lame, niektore verzie wine,...
    29.10.2002 13:20 Michal Švanda | skóre: 19 | blog: vlkovo
    Rozbalit Rozbalit vše Sada obrazku to video
    Prekompiloval jsem ffmpeg s pomoci gcc 3.0.4 a jeho chovani se nezmenilo, cili havaruje. MEncoder ale funguje korektne.

    Založit nové vláknoNahoru

    Tiskni Sdílej: Linkuj Jaggni to Vybrali.sme.sk Google Del.icio.us Facebook

    ISSN 1214-1267   www.czech-server.cz
    © 1999-2015 Nitemedia s. r. o. Všechna práva vyhrazena.