abclinuxu.cz AbcLinuxu.cz itbiz.cz ITBiz.cz HDmag.cz HDmag.cz abcprace.cz AbcPráce.cz
AbcLinuxu hledá autory!
Inzerujte na AbcPráce.cz od 950 Kč
Rozšířené hledání
×
dnes 06:00 | Komunita

Bylo spuštěno hlasování o přednáškách a workshopech pro letošní InstallFest, jenž proběhne o víkendu 4. a 5. března v Praze. Současně byla oznámena změna místa. InstallFest se letos vrací zpět na Karlovo náměstí do budovy E.

Ladislav Hagara | Komentářů: 0
dnes 02:48 | Komunita

Greg Kroah-Hartman potvrdil, že Linux 4.9 je jádrem s prodlouženou upstream podporou (LTS, Long Term Support). Podpora je plánována do ledna 2019. Aktuální jádra s prodlouženou podporou jsou tedy 3.2, 3.4, 3.10, 3.12, 3.16, 3.18, 4.1, 4.4 a 4.9.

Ladislav Hagara | Komentářů: 0
dnes 00:11 | Zajímavý článek

Výrobce síťových prvků, společnost Netgear, spustila nový program, který slibuje vývojářům, expertům, ale i běžným uživatelům vyplacení finanční odměny za nalezení bezpečnostních chyby v jejich produktech. Za nalezení zranitelnosti v hardware, API nebo mobilní aplikaci nabízí odměnu od 150 do 15 tisíc dolarů (dle závažnosti).

Michal Makovec | Komentářů: 0
dnes 00:08 | Pozvánky

V sobotu 18. 2. se v Praze v prostorách VŠE uskuteční od 9:30 již 4. ročník největší české konference o open source redakčním systému WordPress (WP) - WordCamp Praha 2017.

… více »
smíťa | Komentářů: 0
včera 23:58 | Komunita

Kryptoměnová komunita zahájila nový rok spuštěním projektu Blockchain.cz, jehož cílem je kolektivně nalézt ideální překlad pro čím dál frekventovanější slovo „blockchain“. Přispět návrhem může kdokoli. Sběr bude trvat až do konce září 2017. Následně bude probíhat dvoutýdenní veřejné hlasování, které bude zakončeno výběrem toho nejlepšího návrhu.

xHire | Komentářů: 3
včera 15:55 | Bezpečnostní upozornění

Společnost Oracle vydala čtvrtletní bezpečnostní aktualizaci svých softwarových produktů (CPU, Critical Patch Update). Opraveno je celkově 270 bezpečnostních chyb. V Oracle Java SE je například opraveno 17 bezpečnostních chyb. Vzdáleně zneužitelných bez autentizace je 16 z nich. V Oracle MySQL je opraveno 27 bezpečnostních chyb. Vzdáleně zneužitelných bez autentizace je 5 z nich.

Ladislav Hagara | Komentářů: 0
včera 02:48 | Nová verze

Po půl roce od vydání verze 9.0 (zprávička) byla vydána verze 10.0 zvukového serveru PulseAudio. Přehled novinek v poznámkách k vydání.

Ladislav Hagara | Komentářů: 26
včera 00:33 | Komunita Ladislav Hagara | Komentářů: 8
18.1. 17:30 | Zajímavý článek

Mozilla.cz informuje, že webový prohlížeč Firefox bude od verze 53 obsahovat integrovaný prohlížeč dat ve formátu JSON. Firefox kromě strukturovaného prohlížení nabídne také možnost filtrace a uložení na disk. Dle plánu by měl Firefox 53 vyjít 18. 4. 2017.

Ladislav Hagara | Komentářů: 1
18.1. 11:00 | Komunita

Členové a příznivci spolku OpenAlt se pravidelně schází v Praze a Brně. Fotky z pražských srazů za uplynulý rok si můžete prohlédnout na stránkách spolku. Příští sraz se koná už zítra 19. ledna – tentokrát je tématem ergonomie ovládání počítače – tzn. klávesnice, myši a další zařízení. Také budete mít příležitost si prohlédnout pražský hackerspace Brmlab.

xkucf03 | Komentářů: 1
Jak se stavíte k trendu ztenčování přenosných zařízení (smartphony, notebooky)?
 (10%)
 (2%)
 (74%)
 (3%)
 (11%)
Celkem 332 hlasů
 Komentářů: 24, poslední 17.1. 10:14
    Rozcestník
    Reklama

    Dotaz: Sada obrazku to video

    27.10.2002 18:56 Michal Svanda
    Sada obrazku to video
    Přečteno: 88×
    Ahoj. Potreboval bych nejaky soft, ktery ze sady obrazku (cca 400 snimku) umi udelat video v nejakem a vseobecne pouzitelnem formatu (avi, mpeg, ...). Experimenty s mpeg_encode nedavaji skoro zadne vysledky. Dekuji!

    Odpovědi

    27.10.2002 19:10 finn
    Rozbalit Rozbalit vše Sada obrazku to video
    myslim, ze tohle umi treba gimp, ale nikdy jsem to nezkousel
    Selmi avatar 28.10.2002 09:16 Selmi | skóre: 17 | Košice
    Rozbalit Rozbalit vše Sada obrazku to video
    mencoder (www.mplayerhq.hu) treba pozriet dokumentaciu, ale ja pouzivam toto a zatial som bol uplne spokojny
    28.10.2002 10:33 Michal Švanda | skóre: 19 | blog: vlkovo
    Rozbalit Rozbalit vše Sada obrazku to video
    Zkusil jsem tuto moznost a skoncilo to neopravnenym pristupem do pameti a to velmi brzy po spusteni :-( Libovolno, zda poustim v X nebo v konzoli. Nicmene tato moznost je dost zajimava.
    Nemuze to souviset s prekladem v GCC 2.96?
    28.10.2002 21:48 Michal Švanda | skóre: 19 | blog: vlkovo
    Rozbalit Rozbalit vše Sada obrazku to video
    Tak tohle uz jsem vyresil. Prechod na GCC 3.0.4 a je to, uz to pristupuje do pameti zcela opravnene. :-) Uz se s tim nejak snad poperu, jen musim MEncoder presvedcit, ze nechci u obrazku menit rozmery z 400x400 na 100x400. ;-)

    Kazdopadne diky za radu!

    28.10.2002 18:15 Arnost
    Rozbalit Rozbalit vše Sada obrazku to video
    mam pocit ze ffmpeg (ffmpeg.sf.net)
    28.10.2002 21:09 Michal Švanda | skóre: 19 | blog: vlkovo
    Rozbalit Rozbalit vše Sada obrazku to video
    Diky za radu, ale :-( :

    [michal@eleanor jpg]$ ffmpeg -r 0.04 -i %04d.jpg ./a.mpg
    mjpeg: JFIF header found (version: 1.1)
    Input #0, jpeg, from '%04d.jpg':
    Stream #0.0: Video: mjpeg, 400x400, 0.04 fps
    Output #0, mpeg, to './a.mpg':
    Stream #0.0: Video: mpeg1video, 400x400, 0.04 fps, q=2-31, 200 kb/s
    Stream mapping:
    Stream #0.0 -> #0.0
    Press [q] to stop encoding
    mjpeg: JFIF header found (version: 1.1)
    Neoprávněný přístup do paměti (SIGSEGV) (core dumped)

    Totez chovani jako s pouzitim mencoderu. Je to uz nejake podezrele. Netusi nekdo, co se to deje? Pouzivam RH7.1, GCC 2.96-85, AMD K6-III-400 MHz, jadro 2.4.9-34.

    Selmi avatar 29.10.2002 09:15 Selmi | skóre: 17 | Košice
    Rozbalit Rozbalit vše Sada obrazku to video
    nepouzivaj gcc 2.96 :-( mimochodom mencoder neni jediny program ktory ma problemy, takisto sa zosype lame, niektore verzie wine,...
    29.10.2002 13:20 Michal Švanda | skóre: 19 | blog: vlkovo
    Rozbalit Rozbalit vše Sada obrazku to video
    Prekompiloval jsem ffmpeg s pomoci gcc 3.0.4 a jeho chovani se nezmenilo, cili havaruje. MEncoder ale funguje korektne.

    Založit nové vláknoNahoru

    Tiskni Sdílej: Linkuj Jaggni to Vybrali.sme.sk Google Del.icio.us Facebook

    ISSN 1214-1267   www.czech-server.cz
    © 1999-2015 Nitemedia s. r. o. Všechna práva vyhrazena.