abclinuxu.cz AbcLinuxu.cz itbiz.cz ITBiz.cz HDmag.cz HDmag.cz abcprace.cz AbcPráce.cz
AbcLinuxu hledá autory!
Inzerujte na AbcPráce.cz od 950 Kč
Rozšířené hledání
×

včera 17:11 | Komunita

Byly zveřejněny videozáznamy přednášek z Fedora 26 Release Party konané 10. srpna v Praze.

Ladislav Hagara | Komentářů: 0
včera 15:33 | Komunita

Přesně před čtyřiadvaceti lety, 16. srpna 1993, oznámil Ian Murdock vydání "Debian Linux Release".

Ladislav Hagara | Komentářů: 3
včera 06:00 | Bezpečnostní upozornění

Ve virtualizačním softwaru Xen bylo nalezeno a opraveno 5 bezpečnostních chyb XSA-226 až XSA-230. Nejzávažnější z nich XSA-227 (CVE-2017-12137) umožňuje eskalaci privilegií a ovládnutí celého systému, tj. správce hostovaného systému se může stát správcem hostitelského systému.

Ladislav Hagara | Komentářů: 1
15.8. 22:00 | Zajímavý projekt

V roce 2013 proběhla na Kickstarteru úspěšná kampaň na podporu otevřeného Dobře temperovaného klavíru (Well-Tempered Clavier). Stejný tým s Kimiko Išizaka spustil před týdnem na Kickstarteru kampaň Libre Art of the Fugue na podporu svobodného Umění fugy.

Ladislav Hagara | Komentářů: 2
15.8. 13:55 | Pozvánky

Spolek OpenAlt zve příznivce otevřených technologií a otevřeného přístupu na 143. brněnský sraz, který proběhne v pátek 18. srpna od 18:00 hodin ve sportovním areálu a restauraci BeachPub Sokolák u Brněnské přehrady aneb v hantecu u Prýglu.

Ladislav Hagara | Komentářů: 0
15.8. 10:55 | Nová verze

Byla vydána (pdf) verze 3 průběžně aktualizované (rolling release) linuxové distribuce Solus (Wikipedie). Ke stažení je v edicích Budgie, GNOME a MATE. Z novinek lze zmínit například podporu snapů. Solus 3 obsahuje Firefox 55.0.1, LibreOffice 5.4.0.3, Rhythmbox 3.4.1 nebo Thunderbird 52.2.1. Edice Budgie a GNOME přichází s GNOME MPV 0.12. Edice MATE s VLC 2.2.6.

Ladislav Hagara | Komentářů: 6
14.8. 21:44 | Nová verze

Po více než roce vývoje od vydání verze 1.0 Microsoft oznámil vydání verze 2.0 platformy .NET Core (GitHub). Přehled novinek v poznámkách k vydání a ve videu na Channel 9.

Ladislav Hagara | Komentářů: 0
14.8. 21:11 | Pozvánky

Před dvaceti lety, 15. srpna 1997, poslal Miguel de Icaza do diskusního listu GTK+ email, který je považován za zahájení projektu GNOME. Linux Desktop Meetup pořádá oslavu ve středu 16. srpna od 19:00 v brněnském Charlie's square.

Ladislav Hagara | Komentářů: 18
14.8. 11:55 | IT novinky
Na šampionátu The International 2017 byl představen bot, který poráží profesionální hráče počítačové hry Dota 2. Bot zatím umí jenom zápasy 1v1. Vývojáři pracují na podpoře 5v5. Jedná se o společný projekt organizace OpenAI a společnosti Valve. Více na stránkách OpenAI a na YouTube. Dle Elona Muska je elektronický sport mnohem komplexnější než šachy nebo go [Hacker News].
Ladislav Hagara | Komentářů: 14
14.8. 05:55 | Nová verze

Byla vydána verze 20.0 a krátce na to opravná verze 20.0.1 svobodného softwaru OBS Studio (Open Broadcaster Software, Wikipedie) určeného pro streamování a nahrávání obrazovky počítače. Přehled novinek i s náhledy a animovanými gify v příspěvku na blogu.

Ladislav Hagara | Komentářů: 0
Těžíte nějakou kryptoměnu?
 (4%)
 (2%)
 (17%)
 (77%)
Celkem 339 hlasů
 Komentářů: 21, poslední 13.8. 09:57
    Rozcestník

    Dotaz: Sada obrazku to video

    27.10.2002 18:56 Michal Svanda
    Sada obrazku to video
    Přečteno: 89×
    Ahoj. Potreboval bych nejaky soft, ktery ze sady obrazku (cca 400 snimku) umi udelat video v nejakem a vseobecne pouzitelnem formatu (avi, mpeg, ...). Experimenty s mpeg_encode nedavaji skoro zadne vysledky. Dekuji!

    Odpovědi

    27.10.2002 19:10 finn
    Rozbalit Rozbalit vše Sada obrazku to video
    myslim, ze tohle umi treba gimp, ale nikdy jsem to nezkousel
    Selmi avatar 28.10.2002 09:16 Selmi | skóre: 17 | Košice
    Rozbalit Rozbalit vše Sada obrazku to video
    mencoder (www.mplayerhq.hu) treba pozriet dokumentaciu, ale ja pouzivam toto a zatial som bol uplne spokojny
    28.10.2002 10:33 Michal Švanda | skóre: 19 | blog: vlkovo
    Rozbalit Rozbalit vše Sada obrazku to video
    Zkusil jsem tuto moznost a skoncilo to neopravnenym pristupem do pameti a to velmi brzy po spusteni :-( Libovolno, zda poustim v X nebo v konzoli. Nicmene tato moznost je dost zajimava.
    Nemuze to souviset s prekladem v GCC 2.96?
    28.10.2002 21:48 Michal Švanda | skóre: 19 | blog: vlkovo
    Rozbalit Rozbalit vše Sada obrazku to video
    Tak tohle uz jsem vyresil. Prechod na GCC 3.0.4 a je to, uz to pristupuje do pameti zcela opravnene. :-) Uz se s tim nejak snad poperu, jen musim MEncoder presvedcit, ze nechci u obrazku menit rozmery z 400x400 na 100x400. ;-)

    Kazdopadne diky za radu!

    28.10.2002 18:15 Arnost
    Rozbalit Rozbalit vše Sada obrazku to video
    mam pocit ze ffmpeg (ffmpeg.sf.net)
    28.10.2002 21:09 Michal Švanda | skóre: 19 | blog: vlkovo
    Rozbalit Rozbalit vše Sada obrazku to video
    Diky za radu, ale :-( :

    [michal@eleanor jpg]$ ffmpeg -r 0.04 -i %04d.jpg ./a.mpg
    mjpeg: JFIF header found (version: 1.1)
    Input #0, jpeg, from '%04d.jpg':
    Stream #0.0: Video: mjpeg, 400x400, 0.04 fps
    Output #0, mpeg, to './a.mpg':
    Stream #0.0: Video: mpeg1video, 400x400, 0.04 fps, q=2-31, 200 kb/s
    Stream mapping:
    Stream #0.0 -> #0.0
    Press [q] to stop encoding
    mjpeg: JFIF header found (version: 1.1)
    Neoprávněný přístup do paměti (SIGSEGV) (core dumped)

    Totez chovani jako s pouzitim mencoderu. Je to uz nejake podezrele. Netusi nekdo, co se to deje? Pouzivam RH7.1, GCC 2.96-85, AMD K6-III-400 MHz, jadro 2.4.9-34.

    Selmi avatar 29.10.2002 09:15 Selmi | skóre: 17 | Košice
    Rozbalit Rozbalit vše Sada obrazku to video
    nepouzivaj gcc 2.96 :-( mimochodom mencoder neni jediny program ktory ma problemy, takisto sa zosype lame, niektore verzie wine,...
    29.10.2002 13:20 Michal Švanda | skóre: 19 | blog: vlkovo
    Rozbalit Rozbalit vše Sada obrazku to video
    Prekompiloval jsem ffmpeg s pomoci gcc 3.0.4 a jeho chovani se nezmenilo, cili havaruje. MEncoder ale funguje korektne.

    Založit nové vláknoNahoru

    Tiskni Sdílej: Linkuj Jaggni to Vybrali.sme.sk Google Del.icio.us Facebook

    ISSN 1214-1267   www.czech-server.cz
    © 1999-2015 Nitemedia s. r. o. Všechna práva vyhrazena.