abclinuxu.cz AbcLinuxu.cz itbiz.cz ITBiz.cz HDmag.cz HDmag.cz abcprace.cz AbcPráce.cz
AbcLinuxu hledá autory!
Inzerujte na AbcPráce.cz od 950 Kč
Rozšířené hledání
×

dnes 00:22 | Nasazení Linuxu

Společnost Samsung oznámila, že skrze dokovací stanici DeX a aplikaci Linux on Galaxy bude možno na Samsung Galaxy S8 a S8+ a Galaxy Note 8 provozovat Linux. Distribuce nebyly blíže upřesněny.

Phantom Alien | Komentářů: 4
včera 23:55 | Komunita

Společnost Purism na svém blogu oznámila, že její notebooky Librem jsou nově dodávány se zrušeným (neutralized and disabled) Intel Management Engine (ME). Aktualizací corebootu na již prodaných noteboocích lze Management Engine také zrušit. Více v podrobném článku.

Ladislav Hagara | Komentářů: 0
včera 21:44 | Nová verze

Organizace Apache Software Foundation (ASF) na svém blogu slaví páté výročí kancelářského balíku Apache OpenOffice jako jejího Top-Level projektu. Při této příležitosti byl vydán Apache OpenOffice 4.1.4 (AOO 4.1.4). Podrobnosti v poznámkách k vydání. Dlouhé čekání na novou verzi tak skončilo.

Ladislav Hagara | Komentářů: 5
včera 19:22 | Pozvánky

Již příští týden - 26. a 27. října se v Praze v hotelu Olšanka odehraje OpenWRT Summit. Na webu konference naleznete program a možnost zakoupení lístků - ty stojí 55 dolarů. Čtvrtek bude přednáškový a v pátek se budou odehrávat převážně workshopy a meetingy.

Miška | Komentářů: 0
včera 13:44 | Nová verze

Bylo vydáno Ubuntu 17.10 s kódovým názvem Artful Aardvark. Ke stažení jsou Ubuntu Desktop a Server, Ubuntu Cloud Images, Ubuntu Netboot, Kubuntu, Lubuntu a Lubuntu Alternate, Lubuntu Next, Ubuntu Budgie, Ubuntu Kylin, Ubuntu MATE, Ubuntu Studio a Xubuntu. Podrobnosti v poznámkách k vydání.

Ladislav Hagara | Komentářů: 15
včera 13:00 | Komunita

MojeFedora.cz informuje, že Fedora 27 dostane podporu pro AAC. Podpora multimediálních formátů je ve výchozí instalaci Fedory tradičně limitovaná kvůli softwarovým patentům, ale desktopový tým Red Hatu se ji i tak snaží v poslední době co nejvíce rozšířit. Už nějaký čas obsahuje kodeky pro MP3, H.264, AC3 a nyní byl přidán také kodek pro další velmi rozšířený zvukový formát – AAC.

Ladislav Hagara | Komentářů: 2
18.10. 23:55 | Pozvánky

Spolek OpenAlt zve příznivce otevřených technologií a otevřeného přístupu na 145. brněnský sraz, který proběhne v pátek 20. října od 18:00 hodin v restauraci Time Out na adrese Novoměstská 2 v Řečkovicích. Jedná se o poslední sraz před konferencí OpenAlt 2017, jež proběhne o víkendu 4. a 5. listopadu 2017 na FIT VUT v Brně. Běží registrace účastníků.

Ladislav Hagara | Komentářů: 0
18.10. 21:44 | Nová verze

Byla vydána verze 5.2.0 multiplatformního virtualizačního nástroje Oracle VM VirtualBox. Jedná se o první stabilní verzi z nové větve 5.2. Z novinek lze zmínit například možnost exportování VM do Oracle Cloudu, bezobslužnou instalaci hostovaného systému nebo vylepšené GUI. Podrobnosti v seznamu změn. Aktualizována byla také dokumentace.

Ladislav Hagara | Komentářů: 2
18.10. 14:00 | Zajímavý projekt

Byl spuštěn Humble Down Under Bundle. Za vlastní cenu lze koupit multiplatformní hry The Warlock of Firetop Mountain, Screencheat, Hand of Fate a Satellite Reign. Při nadprůměrné platbě (aktuálně 3,63 $) také Hacknet, Hacknet Labyrinths, Crawl a Hurtworld. Při platbě 12 $ a více lze získat navíc Armello.

Ladislav Hagara | Komentářů: 0
18.10. 13:00 | Nová verze

Google Chrome 62 byl prohlášen za stabilní (YouTube). Nejnovější stabilní verze 62.0.3202.62 tohoto webového prohlížeče přináší řadu oprav a vylepšení. Vylepšeny byly také nástroje pro vývojáře (YouTube). Opraveno bylo 35 bezpečnostních chyb.

Ladislav Hagara | Komentářů: 4
Jak se vás potenciálně dotkne trend odstraňování analogového audio konektoru typu 3,5mm jack z „chytrých telefonů“?
 (10%)
 (1%)
 (1%)
 (1%)
 (74%)
 (13%)
Celkem 115 hlasů
 Komentářů: 7, poslední včera 23:06
    Rozcestník

    Dotaz: Sada obrazku to video

    27.10.2002 18:56 Michal Svanda
    Sada obrazku to video
    Přečteno: 89×
    Ahoj. Potreboval bych nejaky soft, ktery ze sady obrazku (cca 400 snimku) umi udelat video v nejakem a vseobecne pouzitelnem formatu (avi, mpeg, ...). Experimenty s mpeg_encode nedavaji skoro zadne vysledky. Dekuji!

    Odpovědi

    27.10.2002 19:10 finn
    Rozbalit Rozbalit vše Sada obrazku to video
    myslim, ze tohle umi treba gimp, ale nikdy jsem to nezkousel
    Selmi avatar 28.10.2002 09:16 Selmi | skóre: 17 | Košice
    Rozbalit Rozbalit vše Sada obrazku to video
    mencoder (www.mplayerhq.hu) treba pozriet dokumentaciu, ale ja pouzivam toto a zatial som bol uplne spokojny
    28.10.2002 10:33 Michal Švanda | skóre: 19 | blog: vlkovo
    Rozbalit Rozbalit vše Sada obrazku to video
    Zkusil jsem tuto moznost a skoncilo to neopravnenym pristupem do pameti a to velmi brzy po spusteni :-( Libovolno, zda poustim v X nebo v konzoli. Nicmene tato moznost je dost zajimava.
    Nemuze to souviset s prekladem v GCC 2.96?
    28.10.2002 21:48 Michal Švanda | skóre: 19 | blog: vlkovo
    Rozbalit Rozbalit vše Sada obrazku to video
    Tak tohle uz jsem vyresil. Prechod na GCC 3.0.4 a je to, uz to pristupuje do pameti zcela opravnene. :-) Uz se s tim nejak snad poperu, jen musim MEncoder presvedcit, ze nechci u obrazku menit rozmery z 400x400 na 100x400. ;-)

    Kazdopadne diky za radu!

    28.10.2002 18:15 Arnost
    Rozbalit Rozbalit vše Sada obrazku to video
    mam pocit ze ffmpeg (ffmpeg.sf.net)
    28.10.2002 21:09 Michal Švanda | skóre: 19 | blog: vlkovo
    Rozbalit Rozbalit vše Sada obrazku to video
    Diky za radu, ale :-( :

    [michal@eleanor jpg]$ ffmpeg -r 0.04 -i %04d.jpg ./a.mpg
    mjpeg: JFIF header found (version: 1.1)
    Input #0, jpeg, from '%04d.jpg':
    Stream #0.0: Video: mjpeg, 400x400, 0.04 fps
    Output #0, mpeg, to './a.mpg':
    Stream #0.0: Video: mpeg1video, 400x400, 0.04 fps, q=2-31, 200 kb/s
    Stream mapping:
    Stream #0.0 -> #0.0
    Press [q] to stop encoding
    mjpeg: JFIF header found (version: 1.1)
    Neoprávněný přístup do paměti (SIGSEGV) (core dumped)

    Totez chovani jako s pouzitim mencoderu. Je to uz nejake podezrele. Netusi nekdo, co se to deje? Pouzivam RH7.1, GCC 2.96-85, AMD K6-III-400 MHz, jadro 2.4.9-34.

    Selmi avatar 29.10.2002 09:15 Selmi | skóre: 17 | Košice
    Rozbalit Rozbalit vše Sada obrazku to video
    nepouzivaj gcc 2.96 :-( mimochodom mencoder neni jediny program ktory ma problemy, takisto sa zosype lame, niektore verzie wine,...
    29.10.2002 13:20 Michal Švanda | skóre: 19 | blog: vlkovo
    Rozbalit Rozbalit vše Sada obrazku to video
    Prekompiloval jsem ffmpeg s pomoci gcc 3.0.4 a jeho chovani se nezmenilo, cili havaruje. MEncoder ale funguje korektne.

    Založit nové vláknoNahoru

    Tiskni Sdílej: Linkuj Jaggni to Vybrali.sme.sk Google Del.icio.us Facebook

    ISSN 1214-1267   www.czech-server.cz
    © 1999-2015 Nitemedia s. r. o. Všechna práva vyhrazena.