abclinuxu.cz AbcLinuxu.cz itbiz.cz ITBiz.cz HDmag.cz HDmag.cz abcprace.cz AbcPráce.cz
AbcLinuxu hledá autory!
Inzerujte na AbcPráce.cz od 950 Kč
Rozšířené hledání
×
včera 23:55 | Komunita

LTS (Long Term Support) podpora Ubuntu 12.04 LTS (Precise Pangolin) skončila po 5 letech od jeho vydání, tj. v dubnu 2017. V březnu 2017 ale Canonical představil placenou ESM (Extended Security Maintenance) podporu, díky které je Ubuntu 12.04 podporováno do dubna 2020. Dnes Canonical potvrdil ESM podporu také pro Ubuntu 14.04 LTS (Trusty Tahr), jehož LTS podpora skončí v dubnu 2019.

Ladislav Hagara | Komentářů: 0
včera 15:00 | Nová verze

Byla vydána verze 3.0.0 frameworku pro vývoj multiplatformních desktopových aplikací pomocí HTML, CSS a JavaScriptu Electron (YouTube, GitHub). Electron byl původně vyvíjen pro editor Atom pod názvem Atom Shell. Dnes je na Electronu postavena celá řada dalších aplikací.

Ladislav Hagara | Komentářů: 0
včera 14:44 | Nová verze

Po půl roce vývoje od vydání verze 6.0.0 byla vydána verze 7.0.0 překladačové infrastruktury LLVM (Wikipedie). Přehled novinek v poznámkách k vydání: LLVM, Clang, clang-tools-extra a LLD.

Ladislav Hagara | Komentářů: 0
včera 13:44 | Nová verze

Byla vydána verze 3.0.0 knihovny pro vykreslování grafů v programovacím jazyce Python Matplotlib (Wikipedie, GitHub). Přehled novinek a galerie grafů na stránkách projektu. Zrušena byla podpora Pythonu 2.

Ladislav Hagara | Komentářů: 0
včera 00:22 | Komunita

V Norimberku probíhá do pátku ownCloud conference 2018, tj. konference vývojářů a uživatelů open source systému ownCloud (Wikipedie) umožňujícího provoz vlastního cloudového úložiště. Přednášky lze sledovat online. Videozáznamy jsou k dispozici na YouTube. Při této příležitosti byl vydán ownCloud Server 10.0.10. Z novinek lze zdůraznit podporu PHP 7.2. Vydán byl také ownCloud Desktop Client 2.5.0. Vyzkoušet lze online demo ownCloudu.

Ladislav Hagara | Komentářů: 1
včera 00:11 | Pozvánky

Zářijový pražský sraz spolku OpenAlt se koná již tento čtvrtek – 20. 9. 2018 od 18:00 v Radegastovně Perón (Stroupežnického 20, Praha 5). Tentokrát bez oficiální přednášky, ale zato s dobrým jídlem a pivem – volná diskuse na téma IoT, CNC, svobodný software, hardware a další hračky.

xkucf03 | Komentářů: 1
18.9. 16:11 | Komunita

Vývojáři relačního databázového systému PostgreSQL oznámili, že schválili svůj Code of Conduct (CoC) aneb kodex chování vývojářů PostgreSQL.

Ladislav Hagara | Komentářů: 24
18.9. 14:44 | Nová verze

Byla vydána verze 1.0 poštovního serveru Courier (Wikipedie). Aktualizovány byly také související balíčky jako Courier authentication library, Courier-IMAP, SqWebMail, maildrop nebo Cone.

Ladislav Hagara | Komentářů: 1
18.9. 02:22 | Zajímavý software

Společnost ​Versity Software otevřela svůj archivační souborový systém ScoutFS. Zdrojové kódy jsou k dispozici na GitHubu (kernel space, user space) pod licencí GPLv2.

Ladislav Hagara | Komentářů: 29
18.9. 00:44 | Nová verze

Byla vydána verze 4.2 programovacího jazyka Swift (Wikipedie). Zdrojové kódy jsou k dispozici na GitHubu. Ke stažení jsou oficiální binární balíčky pro Ubuntu 18.04, Ubuntu 16.04 a Ubuntu 14.04. Přehled novinek ve videozáznamu přednášky z WWDC 2018.

Ladislav Hagara | Komentářů: 6
Na optické médium (CD, DVD, BD aj.) jsem naposledy vypaloval(a) data před méně než
 (13%)
 (15%)
 (20%)
 (23%)
 (25%)
 (4%)
 (1%)
Celkem 370 hlasů
 Komentářů: 33, poslední 16.9. 11:55
Rozcestník

Dotaz: Sada obrazku to video

27.10.2002 18:56 Michal Svanda
Sada obrazku to video
Přečteno: 89×
Ahoj. Potreboval bych nejaky soft, ktery ze sady obrazku (cca 400 snimku) umi udelat video v nejakem a vseobecne pouzitelnem formatu (avi, mpeg, ...). Experimenty s mpeg_encode nedavaji skoro zadne vysledky. Dekuji!

Odpovědi

27.10.2002 19:10 finn
Rozbalit Rozbalit vše Sada obrazku to video
myslim, ze tohle umi treba gimp, ale nikdy jsem to nezkousel
Selmi avatar 28.10.2002 09:16 Selmi | skóre: 17 | Košice
Rozbalit Rozbalit vše Sada obrazku to video
mencoder (www.mplayerhq.hu) treba pozriet dokumentaciu, ale ja pouzivam toto a zatial som bol uplne spokojny
28.10.2002 10:33 Michal Švanda | skóre: 19 | blog: vlkovo
Rozbalit Rozbalit vše Sada obrazku to video
Zkusil jsem tuto moznost a skoncilo to neopravnenym pristupem do pameti a to velmi brzy po spusteni :-( Libovolno, zda poustim v X nebo v konzoli. Nicmene tato moznost je dost zajimava.
Nemuze to souviset s prekladem v GCC 2.96?
28.10.2002 21:48 Michal Švanda | skóre: 19 | blog: vlkovo
Rozbalit Rozbalit vše Sada obrazku to video
Tak tohle uz jsem vyresil. Prechod na GCC 3.0.4 a je to, uz to pristupuje do pameti zcela opravnene. :-) Uz se s tim nejak snad poperu, jen musim MEncoder presvedcit, ze nechci u obrazku menit rozmery z 400x400 na 100x400. ;-)

Kazdopadne diky za radu!

28.10.2002 18:15 Arnost
Rozbalit Rozbalit vše Sada obrazku to video
mam pocit ze ffmpeg (ffmpeg.sf.net)
28.10.2002 21:09 Michal Švanda | skóre: 19 | blog: vlkovo
Rozbalit Rozbalit vše Sada obrazku to video
Diky za radu, ale :-( :

[michal@eleanor jpg]$ ffmpeg -r 0.04 -i %04d.jpg ./a.mpg
mjpeg: JFIF header found (version: 1.1)
Input #0, jpeg, from '%04d.jpg':
Stream #0.0: Video: mjpeg, 400x400, 0.04 fps
Output #0, mpeg, to './a.mpg':
Stream #0.0: Video: mpeg1video, 400x400, 0.04 fps, q=2-31, 200 kb/s
Stream mapping:
Stream #0.0 -> #0.0
Press [q] to stop encoding
mjpeg: JFIF header found (version: 1.1)
Neoprávněný přístup do paměti (SIGSEGV) (core dumped)

Totez chovani jako s pouzitim mencoderu. Je to uz nejake podezrele. Netusi nekdo, co se to deje? Pouzivam RH7.1, GCC 2.96-85, AMD K6-III-400 MHz, jadro 2.4.9-34.

Selmi avatar 29.10.2002 09:15 Selmi | skóre: 17 | Košice
Rozbalit Rozbalit vše Sada obrazku to video
nepouzivaj gcc 2.96 :-( mimochodom mencoder neni jediny program ktory ma problemy, takisto sa zosype lame, niektore verzie wine,...
29.10.2002 13:20 Michal Švanda | skóre: 19 | blog: vlkovo
Rozbalit Rozbalit vše Sada obrazku to video
Prekompiloval jsem ffmpeg s pomoci gcc 3.0.4 a jeho chovani se nezmenilo, cili havaruje. MEncoder ale funguje korektne.

Založit nové vláknoNahoru

Tiskni Sdílej: Linkuj Jaggni to Vybrali.sme.sk Google Del.icio.us Facebook

ISSN 1214-1267   www.czech-server.cz
© 1999-2015 Nitemedia s. r. o. Všechna práva vyhrazena.