abclinuxu.cz AbcLinuxu.cz itbiz.cz ITBiz.cz HDmag.cz HDmag.cz abcprace.cz AbcPráce.cz
AbcLinuxu hledá autory!
Inzerujte na AbcPráce.cz od 950 Kč
Rozšířené hledání
×
eParkomat, startup z ČR, postoupil mezi finalisty evropského akcelerátoru ChallengeUp!
Robot na pivo mu otevřel dveře k opravdovému byznysu
Internet věcí: Propojený svět? Už se to blíží...
dnes 12:00 | Zajímavý projekt

Projekt Termbox umožňuje vyzkoušet si linuxové distribuce Ubuntu, Debian, Fedora, CentOS a Arch Linux ve webovém prohlížeči. Řešení je postaveno na projektu HyperContainer. Podrobnosti v často kladených dotazech (FAQ). Zdrojové kódy jsou k dispozici na GitHubu [reddit].

Ladislav Hagara | Komentářů: 8
dnes 11:00 | Bezpečnostní upozornění

Byly zveřejněny informace o bezpečnostní chybě CVE-2016-8655 v Linuxu zneužitelné k lokální eskalaci práv. Chyba se dostala do linuxového jádra v srpnu 2011. V upstreamu byla opravena minulý týden [Hacker News].

Ladislav Hagara | Komentářů: 0
včera 22:00 | Komunita

Přibližně před měsícem bylo oznámeno, že linuxová distribuce SUSE Linux Enterprise Server (SLES) běží nově také Raspberry Pi 3 (dokumentace). Obraz verze 12 SP2 pro Raspberry Pi 3 je ke stažení zdarma. Pro registrované jsou po dobu jednoho roku zdarma také aktualizace. Dnes bylo oznámeno, že pro Raspberry Pi 3 je k dispozici také nové openSUSE Leap 42.2 (zprávička). K dispozici je hned několik obrazů.

Ladislav Hagara | Komentářů: 5
včera 06:00 | Zajímavý software

OMG! Ubuntu! představuje emulátor terminálu Hyper (GitHub) postavený na webových technologiích (HTML, CSS a JavaScript). V diskusi k článku je zmíněn podobný emulátor terminálu Black Screen. Hyper i Black Screen používají framework Electron, stejně jako editor Atom nebo vývojové prostředí Visual Studio Code.

Ladislav Hagara | Komentářů: 46
včera 06:00 | Zajímavý článek

I letos vychází řada ajťáckých adventních kalendářů. QEMU Advent Calendar 2016 přináší každý den nový obraz disku pro QEMU. Programátoři se mohou potrápit při řešení úloh z kalendáře Advent of Code 2016. Kalendáře Perl Advent Calendar 2016 a Perl 6 Advent Calendar přinášejí každý den zajímavé informace o programovacím jazyce Perl. Stranou nezůstává ani programovací jazyk Go.

Ladislav Hagara | Komentářů: 10
3.12. 16:24 | Nová verze

Byla vydána Mageia 5.1. Jedná se o první opravné vydání verze 5, jež vyšla v červnu loňského roku (zprávička). Uživatelům verze 5 nepřináší opravné vydání nic nového, samozřejmě pokud pravidelně aktualizují. Vydání obsahuje všechny aktualizace za posledního téměř půldruhého roku. Mageia 5.1 obsahuje LibreOffice 4.4.7, Linux 4.4.32, KDE4 4.14.5 nebo GNOME 3.14.3.

Ladislav Hagara | Komentářů: 17
3.12. 13:42 | Pozvánky

V Praze probíhá konference Internet a Technologie 16.2, volné pokračování jarní konference sdružení CZ.NIC. Konferenci lze sledovat online na YouTube. K dispozici je také archiv předchozích konferencí.

Ladislav Hagara | Komentářů: 0
2.12. 22:44 | Komunita

Joinup informuje, že Mnichov používá open source groupware Kolab. V srpnu byl dokončen dvouletý přechod na toto řešení. V provozu je asi 60 000 poštovních schránek. Nejenom Kolabu se věnoval Georg Greve ve své přednášce Open Source: the future for the European institutions (SlideShare) na konferenci DIGITEC 2016, jež proběhla v úterý 29. listopadu v Bruselu. Videozáznam přednášek z hlavního sálu je ke zhlédnutí na Livestreamu.

Ladislav Hagara | Komentářů: 25
2.12. 15:30 | Zajímavý projekt

Společnost Jolla oznámila v příspěvku Case study: Sailfish Watch na svém blogu, že naportovala Sailfish OS na chytré hodinky. Využila a inspirovala se otevřeným operačním systémem pro chytré hodinky AsteroidOS. Použita je knihovna libhybris. Ukázka ovládání hodinek na YouTube.

Ladislav Hagara | Komentářů: 18
2.12. 14:15 | Nová verze

Byla vydána verze 7.1.0 skriptovacího jazyka PHP používaného zejména k vývoji dynamických webových stránek. Jedná se o první stabilní verzi nejnovější větvě 7.1. Přehled novinek v dokumentaci. Podrobnosti v ChangeLogu. K dispozici je také příručka pro přechod z PHP 7.0.x na PHP 7.1.x.

Ladislav Hagara | Komentářů: 7
Kolik máte dat ve svém domovském adresáři na svém primárním osobním počítači?
 (32%)
 (24%)
 (29%)
 (7%)
 (5%)
 (3%)
Celkem 775 hlasů
 Komentářů: 50, poslední 29.11. 15:50
Rozcestník
Reklama

Dotaz: Sada obrazku to video

27.10.2002 18:56 Michal Svanda
Sada obrazku to video
Přečteno: 85×
Ahoj. Potreboval bych nejaky soft, ktery ze sady obrazku (cca 400 snimku) umi udelat video v nejakem a vseobecne pouzitelnem formatu (avi, mpeg, ...). Experimenty s mpeg_encode nedavaji skoro zadne vysledky. Dekuji!

Odpovědi

27.10.2002 19:10 finn
Rozbalit Rozbalit vše Sada obrazku to video
myslim, ze tohle umi treba gimp, ale nikdy jsem to nezkousel
Selmi avatar 28.10.2002 09:16 Selmi | skóre: 17 | Košice
Rozbalit Rozbalit vše Sada obrazku to video
mencoder (www.mplayerhq.hu) treba pozriet dokumentaciu, ale ja pouzivam toto a zatial som bol uplne spokojny
28.10.2002 10:33 Michal Švanda | skóre: 19 | blog: vlkovo
Rozbalit Rozbalit vše Sada obrazku to video
Zkusil jsem tuto moznost a skoncilo to neopravnenym pristupem do pameti a to velmi brzy po spusteni :-( Libovolno, zda poustim v X nebo v konzoli. Nicmene tato moznost je dost zajimava.
Nemuze to souviset s prekladem v GCC 2.96?
28.10.2002 21:48 Michal Švanda | skóre: 19 | blog: vlkovo
Rozbalit Rozbalit vše Sada obrazku to video
Tak tohle uz jsem vyresil. Prechod na GCC 3.0.4 a je to, uz to pristupuje do pameti zcela opravnene. :-) Uz se s tim nejak snad poperu, jen musim MEncoder presvedcit, ze nechci u obrazku menit rozmery z 400x400 na 100x400. ;-)

Kazdopadne diky za radu!

28.10.2002 18:15 Arnost
Rozbalit Rozbalit vše Sada obrazku to video
mam pocit ze ffmpeg (ffmpeg.sf.net)
28.10.2002 21:09 Michal Švanda | skóre: 19 | blog: vlkovo
Rozbalit Rozbalit vše Sada obrazku to video
Diky za radu, ale :-( :

[michal@eleanor jpg]$ ffmpeg -r 0.04 -i %04d.jpg ./a.mpg
mjpeg: JFIF header found (version: 1.1)
Input #0, jpeg, from '%04d.jpg':
Stream #0.0: Video: mjpeg, 400x400, 0.04 fps
Output #0, mpeg, to './a.mpg':
Stream #0.0: Video: mpeg1video, 400x400, 0.04 fps, q=2-31, 200 kb/s
Stream mapping:
Stream #0.0 -> #0.0
Press [q] to stop encoding
mjpeg: JFIF header found (version: 1.1)
Neoprávněný přístup do paměti (SIGSEGV) (core dumped)

Totez chovani jako s pouzitim mencoderu. Je to uz nejake podezrele. Netusi nekdo, co se to deje? Pouzivam RH7.1, GCC 2.96-85, AMD K6-III-400 MHz, jadro 2.4.9-34.

Selmi avatar 29.10.2002 09:15 Selmi | skóre: 17 | Košice
Rozbalit Rozbalit vše Sada obrazku to video
nepouzivaj gcc 2.96 :-( mimochodom mencoder neni jediny program ktory ma problemy, takisto sa zosype lame, niektore verzie wine,...
29.10.2002 13:20 Michal Švanda | skóre: 19 | blog: vlkovo
Rozbalit Rozbalit vše Sada obrazku to video
Prekompiloval jsem ffmpeg s pomoci gcc 3.0.4 a jeho chovani se nezmenilo, cili havaruje. MEncoder ale funguje korektne.

Založit nové vláknoNahoru

Tiskni Sdílej: Linkuj Jaggni to Vybrali.sme.sk Google Del.icio.us Facebook

ISSN 1214-1267   www.czech-server.cz
© 1999-2015 Nitemedia s. r. o. Všechna práva vyhrazena.