abclinuxu.cz AbcLinuxu.cz itbiz.cz ITBiz.cz HDmag.cz HDmag.cz abcprace.cz AbcPráce.cz
AbcLinuxu hledá autory!
Inzerujte na AbcPráce.cz od 950 Kč
Rozšířené hledání
×

včera 18:55 | Komunita

NHSbuntu (Joinup, prezentace) měla být z Ubuntu vycházející linuxová distribuce přizpůsobená pro potřeby britské Národní zdravotní služby (NHS). NHS se název nelíbil, nejednalo se o oficiální projekt NHS, a proto bylo NHSbuntu v září loňského roku přejmenováno na NHoS. Vývojáři NHoS tento týden oznámili, že NHS se nelíbí ani název NHoS a už nemají sílu na další přejmenování a pokračování v projektu. Dodávají, že několik jednání s vedením

… více »
Ladislav Hagara | Komentářů: 2
včera 18:44 | Pozvánky

Koncem ledna, 29. 1. 2018 od 17 do 20 hodin se v Akademii CZ.NIC uskuteční večer s Turrisem.

Co bude na programu?… více »
Miška | Komentářů: 1
včera 18:33 | Pozvánky

Na tri dni sa hlavné mesto Slovenska po tretíkrát zmení na miesto s najväčšou koncentráciou profesionálnych programátorov, systémových administrátorov, učiteľov informatiky aj technologických nadšencov. Hlavným lákadlom bude konferencia PyCon SK 2018, určená záujemcom o Python, jeden z najpopulárnejších programovacích jazykov na svete.

… více »
RicCo386 | Komentářů: 0
včera 18:22 | Pozvánky

Letošní ročník konference Prague PostgreSQL Developer Day se koná ve dnech 14. 2. a 15. 2. 2018. Zveřejněn byl program s přednáškami a školeními. Otevřena byla také registrace na konferenci.

TomasVondra | Komentářů: 0
včera 11:33 | Komunita

Společnost Canonical stojící za linuxovou distribucí Ubuntu oznámila dostupnost nástroje pro týmovou spolupráci Slack (Wikipedie) ve formátu snap. Instalovat jej lze ze Snapcraftu. Slack pro Linux je dostupný také ve formátu klasických balíčků pro Ubuntu a Fedoru.

Ladislav Hagara | Komentářů: 9
18.1. 17:33 | Nová verze

Po roce vývoje od vydání verze 2.0 a 6 000 změnách byla vydána nová stabilní verze 3.0 softwaru, který vytváří aplikační rozhraní umožňující chod aplikací pro Microsoft Windows také pod GNU/Linuxem, Wine (Wikipedie). Z novinek lze zdůraznit například podporu Direct3D 10 a 11. Podrobnosti v poznámkách k vydání.

Ladislav Hagara | Komentářů: 14
18.1. 13:44 | Zajímavý projekt

V říjnu loňského roku úspěšně skončila kampaň na podporu chytrého telefonu Librem 5, jenž by měl respektovat bezpečnost, svobodu a soukromí uživatelů. Společnost Purism informuje o aktuálním vývoji tohoto telefonu. Místo plánovaného SoC i.MX6 by měl být použit úspornější i.MX8.

Ladislav Hagara | Komentářů: 3
18.1. 12:33 | Zajímavý projekt

V květnu loňského roku měl na YouTube premiéru krátký animovaný film Agent 327: Operation Barbershop. Blender Animation Studio včera zveřejnilo alternativní konec tohoto filmu.

Ladislav Hagara | Komentářů: 0
18.1. 05:55 | Bezpečnostní upozornění

Společnost Oracle vydala čtvrtletní bezpečnostní aktualizaci svých softwarových produktů (CPU, Critical Patch Update). Opraveno bylo celkově 237 bezpečnostních chyb. V Oracle Java SE je například opraveno 21 bezpečnostních chyb. Vzdáleně zneužitelných bez autentizace je 18 z nich. V Oracle MySQL je opraveno 25 bezpečnostních chyb. Vzdáleně zneužitelných bez autentizace je 6 z nich.

Ladislav Hagara | Komentářů: 0
17.1. 20:55 | Komunita

Linux ve VirtualBoxu nebude potřebovat Přídavky pro hosta (Guest Additions). Budou součástí linuxového jádra. Ovladač vboxguest by se měl dostat do Linuxu 4.16. Ovladač vboxsf by měl následovat.

Ladislav Hagara | Komentářů: 26
Jak se vás potenciálně dotkne trend odstraňování analogového audio konektoru typu 3,5mm jack z „chytrých telefonů“?
 (7%)
 (1%)
 (1%)
 (1%)
 (76%)
 (13%)
Celkem 1339 hlasů
 Komentářů: 53, poslední 17.1. 16:55
    Rozcestník

    Dotaz: Sada obrazku to video

    27.10.2002 18:56 Michal Svanda
    Sada obrazku to video
    Přečteno: 89×
    Ahoj. Potreboval bych nejaky soft, ktery ze sady obrazku (cca 400 snimku) umi udelat video v nejakem a vseobecne pouzitelnem formatu (avi, mpeg, ...). Experimenty s mpeg_encode nedavaji skoro zadne vysledky. Dekuji!

    Odpovědi

    27.10.2002 19:10 finn
    Rozbalit Rozbalit vše Sada obrazku to video
    myslim, ze tohle umi treba gimp, ale nikdy jsem to nezkousel
    Selmi avatar 28.10.2002 09:16 Selmi | skóre: 17 | Košice
    Rozbalit Rozbalit vše Sada obrazku to video
    mencoder (www.mplayerhq.hu) treba pozriet dokumentaciu, ale ja pouzivam toto a zatial som bol uplne spokojny
    28.10.2002 10:33 Michal Švanda | skóre: 19 | blog: vlkovo
    Rozbalit Rozbalit vše Sada obrazku to video
    Zkusil jsem tuto moznost a skoncilo to neopravnenym pristupem do pameti a to velmi brzy po spusteni :-( Libovolno, zda poustim v X nebo v konzoli. Nicmene tato moznost je dost zajimava.
    Nemuze to souviset s prekladem v GCC 2.96?
    28.10.2002 21:48 Michal Švanda | skóre: 19 | blog: vlkovo
    Rozbalit Rozbalit vše Sada obrazku to video
    Tak tohle uz jsem vyresil. Prechod na GCC 3.0.4 a je to, uz to pristupuje do pameti zcela opravnene. :-) Uz se s tim nejak snad poperu, jen musim MEncoder presvedcit, ze nechci u obrazku menit rozmery z 400x400 na 100x400. ;-)

    Kazdopadne diky za radu!

    28.10.2002 18:15 Arnost
    Rozbalit Rozbalit vše Sada obrazku to video
    mam pocit ze ffmpeg (ffmpeg.sf.net)
    28.10.2002 21:09 Michal Švanda | skóre: 19 | blog: vlkovo
    Rozbalit Rozbalit vše Sada obrazku to video
    Diky za radu, ale :-( :

    [michal@eleanor jpg]$ ffmpeg -r 0.04 -i %04d.jpg ./a.mpg
    mjpeg: JFIF header found (version: 1.1)
    Input #0, jpeg, from '%04d.jpg':
    Stream #0.0: Video: mjpeg, 400x400, 0.04 fps
    Output #0, mpeg, to './a.mpg':
    Stream #0.0: Video: mpeg1video, 400x400, 0.04 fps, q=2-31, 200 kb/s
    Stream mapping:
    Stream #0.0 -> #0.0
    Press [q] to stop encoding
    mjpeg: JFIF header found (version: 1.1)
    Neoprávněný přístup do paměti (SIGSEGV) (core dumped)

    Totez chovani jako s pouzitim mencoderu. Je to uz nejake podezrele. Netusi nekdo, co se to deje? Pouzivam RH7.1, GCC 2.96-85, AMD K6-III-400 MHz, jadro 2.4.9-34.

    Selmi avatar 29.10.2002 09:15 Selmi | skóre: 17 | Košice
    Rozbalit Rozbalit vše Sada obrazku to video
    nepouzivaj gcc 2.96 :-( mimochodom mencoder neni jediny program ktory ma problemy, takisto sa zosype lame, niektore verzie wine,...
    29.10.2002 13:20 Michal Švanda | skóre: 19 | blog: vlkovo
    Rozbalit Rozbalit vše Sada obrazku to video
    Prekompiloval jsem ffmpeg s pomoci gcc 3.0.4 a jeho chovani se nezmenilo, cili havaruje. MEncoder ale funguje korektne.

    Založit nové vláknoNahoru

    Tiskni Sdílej: Linkuj Jaggni to Vybrali.sme.sk Google Del.icio.us Facebook

    ISSN 1214-1267   www.czech-server.cz
    © 1999-2015 Nitemedia s. r. o. Všechna práva vyhrazena.