abclinuxu.cz AbcLinuxu.cz itbiz.cz ITBiz.cz HDmag.cz HDmag.cz abcprace.cz AbcPráce.cz
AbcLinuxu hledá autory!
Inzerujte na AbcPráce.cz od 950 Kč
Rozšířené hledání
×

dnes 00:11 | Nová verze

Eclipse Foundation oznámila vydání nové verze vývojového prostředí Eclipse. Eclipse 4.7 s kódovým označením Oxygen vychází rok po vydání verze 4.6 s kódovým označením Neon (zprávička) a přináší celou řadu novinek. Jejich představení také na YouTube.

Ladislav Hagara | Komentářů: 0
včera 23:33 | Zajímavý software

Před týdnem Lennart Poettering představil casync, tj. nástroj pro distribuci obrazů systémů. Dnes oficiálně představil mkosi, tj. nástroj pro generování těchto obrazů. Zdrojové kódy mkosi jsou k dispozici na GitHubu pod licencí LGPL-2.1.

Ladislav Hagara | Komentářů: 0
včera 16:00 | Bezpečnostní upozornění

Ve správci systému a služeb systemd, konkrétně v systemd-resolved, byla nalezena bezpečnostní chyba CVE-2017-9445. Útočník může vzdáleně shodit server nebo spustit libovolný příkaz.

Ladislav Hagara | Komentářů: 19
27.6. 11:33 | Pozvánky

Konference LinuxDays 2017 proběhne o víkendu 7. a 8. října v Praze v Dejvicích v prostorách FIT ČVUT. Konference OpenAlt 2017 proběhne o víkendu 4. a 5. listopadu na FIT VUT v Brně. Organizátoři konferencí vyhlásili CFP (LinuxDays, OpenAlt). Přihlaste svou přednášku nebo doporučte konference známým.

Ladislav Hagara | Komentářů: 1
27.6. 06:00 | Nová verze

Byla vydána verze 1.3.0 odlehčeného desktopového prostředí Lumina (Wikipedie, GitHub) postaveného nad toolkitem Qt. Z novinek lze zmínit nový motiv ikon nahrazující Oxygen (material-design-[light/dark]) nebo vlastní multimediální přehrávač (lumina-mediaplayer).

Ladislav Hagara | Komentářů: 2
26.6. 17:33 | Bezpečnostní upozornění

Před šesti týdny byly publikovány výsledky bezpečnostního auditu zdrojových kódů OpenVPN a nalezené bezpečnostní chyby byly opraveny ve verzi OpenVPN 2.4.2. Guido Vranken minulý týden oznámil, že v OpenVPN nalezl další čtyři bezpečnostní chyby (CVE-2017-7520, CVE-2017-7521, CVE-2017-7522 a CVE-2017-7508). Nejzávažnější z nich se týká způsobu, jakým aplikace zachází s SSL certifikáty. Vzdálený útočník může pomocí speciálně

… více »
Ladislav Hagara | Komentářů: 1
26.6. 06:55 | Zajímavý projekt

V Edici CZ.NIC vyšla kniha Průvodce labyrintem algoritmů. Kniha je ke stažení zcela zdarma (pdf) nebo lze objednat tištěnou verzi za 339 Kč (připojení přes IPv4) nebo 289 Kč (připojení přes IPv6).

Ladislav Hagara | Komentářů: 10
26.6. 06:33 | Zajímavý software

Byla vydána verze 2.2.0 svobodného správce hesel KeePassXC (Wikipedie). Jedná se o komunitní fork správce hesel KeePassX s řadou vylepšení.

Ladislav Hagara | Komentářů: 0
26.6. 06:11 | IT novinky

Vývojář Debianu Henrique de Moraes Holschuh upozorňuje v diskusním listu debian-devel na chybu v Hyper-Threadingu v procesorech Skylake a Kaby Lake od Intelu. Za určitých okolností může chyba způsobit nepředvídatelné chování systému. Doporučuje se aktualizace mikrokódu CPU nebo vypnutí Hyper-Threadingu v BIOSu nebo UEFI [reddit].

Ladislav Hagara | Komentářů: 0
24.6. 01:23 | Komunita

Phoronix spustil 2017 Linux Laptop Survey. Tento dotazník s otázkami zaměřenými na parametry ideálního notebooku s Linuxem lze vyplnit do 6. července.

Ladislav Hagara | Komentářů: 3
Chystáte se pořídit CPU AMD Ryzen?
 (7%)
 (31%)
 (1%)
 (9%)
 (44%)
 (9%)
Celkem 858 hlasů
 Komentářů: 65, poslední 1.6. 19:16
    Rozcestník

    Dotaz: Sada obrazku to video

    27.10.2002 18:56 Michal Svanda
    Sada obrazku to video
    Přečteno: 89×
    Ahoj. Potreboval bych nejaky soft, ktery ze sady obrazku (cca 400 snimku) umi udelat video v nejakem a vseobecne pouzitelnem formatu (avi, mpeg, ...). Experimenty s mpeg_encode nedavaji skoro zadne vysledky. Dekuji!

    Odpovědi

    27.10.2002 19:10 finn
    Rozbalit Rozbalit vše Sada obrazku to video
    myslim, ze tohle umi treba gimp, ale nikdy jsem to nezkousel
    Selmi avatar 28.10.2002 09:16 Selmi | skóre: 17 | Košice
    Rozbalit Rozbalit vše Sada obrazku to video
    mencoder (www.mplayerhq.hu) treba pozriet dokumentaciu, ale ja pouzivam toto a zatial som bol uplne spokojny
    28.10.2002 10:33 Michal Švanda | skóre: 19 | blog: vlkovo
    Rozbalit Rozbalit vše Sada obrazku to video
    Zkusil jsem tuto moznost a skoncilo to neopravnenym pristupem do pameti a to velmi brzy po spusteni :-( Libovolno, zda poustim v X nebo v konzoli. Nicmene tato moznost je dost zajimava.
    Nemuze to souviset s prekladem v GCC 2.96?
    28.10.2002 21:48 Michal Švanda | skóre: 19 | blog: vlkovo
    Rozbalit Rozbalit vše Sada obrazku to video
    Tak tohle uz jsem vyresil. Prechod na GCC 3.0.4 a je to, uz to pristupuje do pameti zcela opravnene. :-) Uz se s tim nejak snad poperu, jen musim MEncoder presvedcit, ze nechci u obrazku menit rozmery z 400x400 na 100x400. ;-)

    Kazdopadne diky za radu!

    28.10.2002 18:15 Arnost
    Rozbalit Rozbalit vše Sada obrazku to video
    mam pocit ze ffmpeg (ffmpeg.sf.net)
    28.10.2002 21:09 Michal Švanda | skóre: 19 | blog: vlkovo
    Rozbalit Rozbalit vše Sada obrazku to video
    Diky za radu, ale :-( :

    [michal@eleanor jpg]$ ffmpeg -r 0.04 -i %04d.jpg ./a.mpg
    mjpeg: JFIF header found (version: 1.1)
    Input #0, jpeg, from '%04d.jpg':
    Stream #0.0: Video: mjpeg, 400x400, 0.04 fps
    Output #0, mpeg, to './a.mpg':
    Stream #0.0: Video: mpeg1video, 400x400, 0.04 fps, q=2-31, 200 kb/s
    Stream mapping:
    Stream #0.0 -> #0.0
    Press [q] to stop encoding
    mjpeg: JFIF header found (version: 1.1)
    Neoprávněný přístup do paměti (SIGSEGV) (core dumped)

    Totez chovani jako s pouzitim mencoderu. Je to uz nejake podezrele. Netusi nekdo, co se to deje? Pouzivam RH7.1, GCC 2.96-85, AMD K6-III-400 MHz, jadro 2.4.9-34.

    Selmi avatar 29.10.2002 09:15 Selmi | skóre: 17 | Košice
    Rozbalit Rozbalit vše Sada obrazku to video
    nepouzivaj gcc 2.96 :-( mimochodom mencoder neni jediny program ktory ma problemy, takisto sa zosype lame, niektore verzie wine,...
    29.10.2002 13:20 Michal Švanda | skóre: 19 | blog: vlkovo
    Rozbalit Rozbalit vše Sada obrazku to video
    Prekompiloval jsem ffmpeg s pomoci gcc 3.0.4 a jeho chovani se nezmenilo, cili havaruje. MEncoder ale funguje korektne.

    Založit nové vláknoNahoru

    Tiskni Sdílej: Linkuj Jaggni to Vybrali.sme.sk Google Del.icio.us Facebook

    ISSN 1214-1267   www.czech-server.cz
    © 1999-2015 Nitemedia s. r. o. Všechna práva vyhrazena.