abclinuxu.cz AbcLinuxu.cz itbiz.cz ITBiz.cz HDmag.cz HDmag.cz abcprace.cz AbcPráce.cz
AbcLinuxu hledá autory!
Inzerujte na AbcPráce.cz od 950 Kč
Rozšířené hledání
×
včera 09:55 | Nová verze

Byl vydán Debian 8.11, tj. jedenáctá a současně poslední opravná verze Debianu 8 s kódovým názvem Jessie. Uživatelům je doporučen přechod na Debian 9 Stretch nebo využít LTS (Debian Long Term Support). LTS podpora Debianu 8 je plánována do 30. června 2020. LTS podpora Debianu 7 Wheezy skončila 31. května 2018.

Ladislav Hagara | Komentářů: 0
včera 09:11 | IT novinky

Hodnota Bitcoinu, decentralizované kryptoměny, klesla pod 6 000 dolarů. Před půl rokem byla hodnota Bitcoinu téměř 20 000 dolarů.

Ladislav Hagara | Komentářů: 24
23.6. 12:33 | Zajímavý projekt

Kernel.org představil lore.kernel.org, tj. archiv diskusního listu vývojářů linuxového jádra LKML (Linux Kernel Mailing List) s řadou zajímavých funkcí. Archiv běží na softwaru Public Inbox.

Ladislav Hagara | Komentářů: 0
23.6. 10:55 | Nová verze

Po devíti měsících vývoje od vydání verze 10.0 byla vydána verze 11.0 open source alternativy GitHubu, tj. softwarového nástroje s webovým rozhraním umožňujícího spolupráci na zdrojových kódech, GitLab (Wikipedie). Představení nových vlastností v příspěvku na blogu a na YouTube.

Ladislav Hagara | Komentářů: 2
22.6. 20:44 | Nová verze

Po více než 3 měsících vývoje od vydání verze 238 oznámil Lennart Poettering vydání verze 239 správce systému a služeb systemd (GitHub, NEWS).

Ladislav Hagara | Komentářů: 43
22.6. 15:00 | Nová verze

Bylo oznámeno vydání nové stabilní verze 1.28 a beta verze 1.29 open source textového editoru Atom (Wikipedie). Přehled novinek i s náhledy v příspěvku na blogu. Podrobnosti v poznámkách k vydání. Atom 1.28 je postaven na Electronu 2.0.

Ladislav Hagara | Komentářů: 2
22.6. 14:00 | Nová verze

Byla vydána nová verze 2.3.0 multiplatformního svobodného frameworku pro zpracování obrazu G'MIC (GREYC's Magic for Image Computing, Wikipedie). Přehled novinek i s náhledy na PIXLS.US.

Ladislav Hagara | Komentářů: 0
22.6. 13:00 | Komunita

Akční RPG hra Shadowrun Returns Deluxe, kterou lze hrát i na Linuxu je nyní zdarma na Humble Bundle. Hra vyšla díky kampani na Kickstarteru v roce 2013.

tajny_007 | Komentářů: 0
22.6. 01:00 | Nová verze

Byla vydána verze 1.27 programovacího jazyka Rust (Wikipedie). Z novinek je nutno zmínit podporu SIMD (Single Instruction Multiple Data). Podrobnosti v poznámkách k vydání. Vyzkoušet Rust lze například na stránce Rust by Example.

Ladislav Hagara | Komentářů: 7
21.6. 16:22 | IT novinky

CEO Intelu Brian Krzanich rezignoval (tisková zpráva). Oficiálním důvodem je "vztah na pracovišti". S okamžitou platností se dočasným CEO stal Robert Swan.

Ladislav Hagara | Komentářů: 41
Jak čtete delší texty z webových stránek?
 (78%)
 (21%)
 (4%)
 (7%)
 (2%)
 (11%)
Celkem 256 hlasů
 Komentářů: 39, poslední 21.6. 17:44
    Rozcestník

    Dotaz: ffmpeg - zvuk v 3gp

    9.10.2007 17:15 kolage
    ffmpeg - zvuk v 3gp
    Přečteno: 2116×
    Zdar,

    potreboval bych poradit... Mam Ubuntu 7.04 a chtel sem si prevest z .avi na .3gp do mobilu jeden filmecek. Vsechno se zdalo byt v pohode, jenze po nahrani videa do mobilu nefunguje zvuk. Zkousel jsem jak kodek aac, tak mp3, ale nic, pritom kdyz vysledne video 3gp spustim na pocitaci v MPlayer, je vse v poradku... Jeste prikladam vypis terminalu :

    
    Input #0, avi, from 'tunak.avi':
      Duration: 00:04:16.0, start: 0.000000, bitrate: 853 kb/s
      Stream #0.0: Video: mpeg4, yuv420p, 320x239, 29.97 fps(r)
      Stream #0.1: Audio: mp3, 22050 Hz, mono, 64 kb/s
    Output #0, 3gp, to 'tunak.3gp':
      Stream #0.0: Video: h263, yuv420p, 176x144, q=2-31, 200 kb/s, 29.97 fps(c)
      Stream #0.1: Audio: mp3, 22050 Hz, mono, 64 kb/s
    Stream mapping:
      Stream #0.0 -> #0.0
      Stream #0.1 -> #0.1
    Press [q] to stop encoding
    frame= 7669 q=1.6 Lsize=    8545kB time=255.9 bitrate= 273.6kbits/s    
    video:6404kB audio:2001kB global headers:0kB muxing overhead 1.666017%
    
    
    Muzete prosim nekdo poradit? Jinak mam mobil SE K750 ...

    Odpovědi

    stativ avatar 9.10.2007 17:35 stativ | skóre: 54 | blog: SlaNé roury
    Rozbalit Rozbalit vše Re: ffmpeg - zvuk v 3gp
    U své nokie 6131 jsem měl stejný problém. Ten jsem nakonec vyřešil.
    • převést video do potřebného formátu, ale bez zvuku
    • analogicky to samé udělat se zvukem
    • video a zvuk spojit dohromady
      • použít mp4creator z mpeg4ip pro spojení do mp4
        mp4creator -force3GPCompliance -create=soubor_s_videem vystupni_soubor.3gp
        mp4creator -force3GPCompliance -interleave -create=soubor_s_audiem vystupni_soubor.3gp
      • nebo použít MP4Box z gpac
        MP4Box -3gp -add soubor_s_videem -add soubor_s_audiem vystupni_soubor.3gp
    Teď ale řeším jiný problém – video beží pomaleji než zvuk. Vypadá to, jakoby mobil měl pevně nastavý nějaký framerate, bohužel změna fps u videa nepomáhá.
    Ať sežeru elfa i s chlupama!!! ljirkovsky.wordpress.com stativ.tk
    9.10.2007 20:08 Andrej Herceg | skóre: 43
    Rozbalit Rozbalit vše Re: ffmpeg - zvuk v 3gp
    Pri .3gp nemá byť AMR audio kodek? (v niektorých .3gp je použitý aj amr-nb alebo amr-wb kodek)
    10.10.2007 18:09 kolage
    Rozbalit Rozbalit vše Re: ffmpeg - zvuk v 3gp
    No, pro mobil jsem uz stahoval filmy 3gp, ktere meli aj kodek aac a zvuk v mobilu fungoval...Amr-nb jsem zkousel, ale kvalita byla strasna, i kdyz jsem dal nejvetsi bitrate, tak to hodne chrcelo...
    10.10.2007 19:02 Andrej Herceg | skóre: 43
    Rozbalit Rozbalit vše Re: ffmpeg - zvuk v 3gp
    Amr-nb má najužšie frekvenčné pásmo (300–3400 Hz), takže to nie je najlepšia voľba. Lepšie je amr-wb (frekvenčné pásmo je 50–7000 Hz).
    stativ avatar 11.10.2007 17:35 stativ | skóre: 54 | blog: SlaNé roury
    Rozbalit Rozbalit vše Re: ffmpeg - zvuk v 3gp
    3gp je většinou (možná vždy) zakuklený mp4 kontainer a ten může obsahovat leccos. Jako zvuk se u něj často používá aac. Nicméně mohu říci, že ffmpeg, ani mencoder nejsou schopny správně zapsat do mp4, a tedy potažmo i 3gp, hlavičku pro zvukovou stopu. Konkrétně chybí informace o bitrate a přinejmenším mobily od Nokie se s tímhle nedovedou srovnat.
    Ať sežeru elfa i s chlupama!!! ljirkovsky.wordpress.com stativ.tk

    Založit nové vláknoNahoru

    Tiskni Sdílej: Linkuj Jaggni to Vybrali.sme.sk Google Del.icio.us Facebook

    ISSN 1214-1267   www.czech-server.cz
    © 1999-2015 Nitemedia s. r. o. Všechna práva vyhrazena.