abclinuxu.cz AbcLinuxu.cz itbiz.cz ITBiz.cz HDmag.cz HDmag.cz abcprace.cz AbcPráce.cz
AbcLinuxu hledá autory!
Inzerujte na AbcPráce.cz od 950 Kč
Rozšířené hledání
×

dnes 10:33 | Komunita

V pondělí měl na YouTube online premiéru otevřený krátký 2D film Hero vytvořený v 3D softwaru Blender. Cílem stejnojmenného projektu Hero je vylepšit nástroj Grease Pencil (tužka) v Blenderu 2.8.

Ladislav Hagara | Komentářů: 3
včera 23:22 | Nová verze

Byla vydána verze 4.0 kolekce svobodného softwaru umožňujícího nahrávání, konverzi a streamovaní digitálního zvuku a obrazu FFmpeg (Wikipedie). Přehled novinek v Changelogu (GitHub).

Ladislav Hagara | Komentářů: 0
včera 17:22 | Komunita

Včera vydanou hru Rise of the Tomb Raider pro Linux lze do pondělí 23. dubna koupit na Steamu s 67% slevou. Místo 49,99 € za 16,49 €.

Ladislav Hagara | Komentářů: 0
včera 16:11 | Komunita

Na Humble Bundle lze získat počítačovou hru Satellite Reign (Wikipedie, YouTube) běžící také v Linuxu zdarma. Speciální akce končí v sobotu v 19:00.

Ladislav Hagara | Komentářů: 2
včera 15:44 | Zajímavý software

Společnost Apple koupila před třemi lety společnost FoundationDB vyvíjející stejnojmenný NoSQL databázový systém FoundationDB (Wikipedie). Včera byl tento systém uvolněn jako open source pod licencí Apache 2.0. Zdrojové kódy jsou k dispozici na GitHubu.

Ladislav Hagara | Komentářů: 0
včera 15:00 | Nová verze

Po dva a půl roce od vydání verze 5.7 oznámila společnost Oracle vydání nové major verze 8.0 (8.0.11) databázového systému MySQL (Wikipedie). Přehled novinek v poznámkách k vydání. Zdrojové kódy komunitní verze MySQL jsou k dispozici na GitHubu.

Ladislav Hagara | Komentářů: 2
19.4. 14:44 | Pozvánky

Spolek OpenAlt zve příznivce otevřených technologií a otevřeného přístupu na 151. brněnský sraz, který proběhne v pátek 20. 4. od 18:00 hodin v restauraci Benjamin na Drobného 46.

Ladislav Hagara | Komentářů: 0
19.4. 13:33 | Nová verze

Byla vydána verze 18.04.0 KDE Aplikací (KDE Applications). Přehled novinek v kompletním seznamu změn a na stránce s dalšími informacemi.

Ladislav Hagara | Komentářů: 0
19.4. 13:11 | Nová verze

Bylo oznámeno vydání nové stabilní verze 1.26 a beta verze 1.27 open source textového editoru Atom (Wikipedie). Přehled novinek i s náhledy v příspěvku na blogu. Podrobnosti v poznámkách k vydání.

Ladislav Hagara | Komentářů: 0
19.4. 12:55 | Komunita

Dle plánu byla dnes vydána hra Rise of the Tomb Raider (Wikipedie) pro Linux. Koupit ji lze za 49,99 €.

Ladislav Hagara | Komentářů: 3
Používáte na serverech port knocking?
 (3%)
 (7%)
 (46%)
 (27%)
 (17%)
Celkem 339 hlasů
 Komentářů: 29, poslední 5.4. 12:25
    Rozcestník

    Dotaz: Nekvalitní výstup konverze do AMV užitím ffmpeg

    regine avatar 19.5.2013 13:52 regine | skóre: 21 | blog: regine
    Nekvalitní výstup konverze do AMV užitím ffmpeg
    Přečteno: 204×

    Dle návodu jsem provedl

    ffmpeg-amv -i x-in.avi -s 160x120 -ac 1 -ar 22050 -qmin 3 -qmax 3 x-out.amv

    Přehrávač Hyundai MPC 401 umožňuje jen:
    - rozlišení 160x120,
    - kontejner AMV (s AMVV).
    Výstup je přehratelný, ale barvy jsou ujeté, bída.
    V čem je problém? Jaké parametry změnit?

    Údajně se již má užívat "avconv".

    Originální "AMVConverter" dodaný s přehrávačem je k ničemu.
    Umožňuje jen z WMV do AMV a konvertuje strašně pomalu.


    výpis z konverze s "ffmpeg"

    ffprobe x-out.amv
    Input #0, avi, from 'x-out.amv':
    Duration: 01:40:50.24, start: 0.000000, bitrate: 760 kb/s
    Stream #0.0: Video: amv, yuvj420p, 160x120, 25 tbr, 25 tbn, 25 tbc
    Stream #0.1: Audio: adpcm_ima_amv, 22050 Hz, 1 channels, s16, 64 kb/s


    výpis z konverze s "AMVConverter"

    ffprobe x-out.amv
    Input #0, avi, from 'x-out.amv':
    Duration: 00:00:00.00, start: 0.000000, bitrate: -2147483 kb/s
    Stream #0.0: Video: amv, yuvj420p, 160x120, 25 tbr, 25 tbn, 25 tbc
    Stream #0.1: Audio: adpcm_ima_amv, 22050 Hz, 1 channels, s16, 352 kb/s
    Cigareta krátí život o 1 minutu, láhev koňaku o 5 minut a pracovní den krátí život o 8 hodin.

    Odpovědi

    20.5.2013 10:27 Carth_Onasi
    Rozbalit Rozbalit vše Re: Nekvalitní výstup konverze do AMV užitím ffmpeg

    Zkus to podle:

    http://code.google.com/p/amv-codec-tools/wiki/HowToConvertToAMV

    Takhle:

    ffmpeg-amv -i input.wmv -f amv -s 160x128 -r 16 -ac 1 -ar 22050 -qmin 3 -qmax 3 -vol 300 -ab 352k -y output.amv

    Též zkus pohrát s video-bitrate:

    -b:v 64k -bufsize 64k

    Založit nové vláknoNahoru

    Tiskni Sdílej: Linkuj Jaggni to Vybrali.sme.sk Google Del.icio.us Facebook

    ISSN 1214-1267   www.czech-server.cz
    © 1999-2015 Nitemedia s. r. o. Všechna práva vyhrazena.