abclinuxu.cz AbcLinuxu.cz itbiz.cz ITBiz.cz HDmag.cz HDmag.cz abcprace.cz AbcPráce.cz
AbcLinuxu hledá autory!
Inzerujte na AbcPráce.cz od 950 Kč
Rozšířené hledání
×

dnes 00:33 | IT novinky

Josef Průša představil na Maker Faire v New Yorku svou novou 3D tiskárnu Original Prusa i3 MK3. Z novinek (YouTube) lze zdůraznit senzor filamentu, výměnnou magnetickou podložku, rychlejší tisk nebo rozpoznání uskočené vrstvy, výpadku napájení a výpadku filamentu (YouTube).

Ladislav Hagara | Komentářů: 7
včera 17:22 | Komunita

Martin Flöser představil na svém blogu projekt XFree KWin. Cílem projektu je rozběhnout správce oken KWin na Waylandu bez XWaylandu [reddit].

Ladislav Hagara | Komentářů: 7
včera 16:55 | Komunita

Do pátku 29. září probíhá v Praze v hotelu Hilton konference SUSECON 2017 pořádaná společností SUSE. Dění na konferenci lze sledovat na Twitteru. Nils Brauckmann, CEO společnosti SUSE, vítá účastníky konference na YouTube.

Ladislav Hagara | Komentářů: 2
včera 07:00 | Komunita

Příspěvek na blogu společnosti Yubico informuje o začlenění podpory bezpečnostních klíčů FIDO U2F do Firefoxu Nightly. Dosud bylo možné dvoufázové ověření pomocí FIDO U2F ve Firefoxu zajistit pouze pomocí doplňku.

Ladislav Hagara | Komentářů: 4
včera 06:00 | Humor

Adobe PSIRT (Adobe Product Security Incident Response Team) neúmyslně zveřejnil (archive) na svém blogu svůj soukromý OpenPGP klíč. Klíč byl revokován a vygenerován nový. Nelze nezmínit xkcd 1553 - Veřejný klíč.

Ladislav Hagara | Komentářů: 1
24.9. 20:00 | Nová verze

Byla vydána (cgit) verze 0.99 svobodného nelineárního video editoru Pitivi. Jedná se o release candidate verze 1.0. Přehled úkolů, které je nutno ještě dodělat, na Phabricatoru. Pitivi je k dispozici také ve formátu Flatpak.

Ladislav Hagara | Komentářů: 1
24.9. 17:11 | Komunita

Microsoft s Canonicalem představili linuxové jádro Ubuntu optimalizováno pro cloudové služby Microsoft Azure (linux-azure). Jako výchozí je toto menší a výkonnější jádro použito již v Ubuntu Cloud Images for Ubuntu 16.04 LTS. Canonical zatím nenabízí patchování tohoto jádra za běhu systému (Canonical Livepatch Service).

Ladislav Hagara | Komentářů: 1
24.9. 14:55 | Komunita

Facebook oznámil, že přelicencuje open source projekty React, Jest, Flow a Immutable.js ze své vlastní kontroverzní licence BSD+Patents na licenci MIT. Stane se tak tento týden s vydáním Reactu 16. Jedním z důvodů přelicencování bylo oznámení nadace Apache, že software pod Facebook BSD+Patents licencí nesmí být součástí produktů pod touto nadací [Hacker News].

Ladislav Hagara | Komentářů: 0
23.9. 21:44 | Nová verze

Po půl roce od vydání verze 9.0 byla vydána verze 10.0 open source alternativy GitHubu, tj. softwarového nástroje s webovým rozhraním umožňujícího spolupráci na zdrojových kódech, GitLab (Wikipedie). Představení nových vlastností v příspěvku na blogu a na YouTube.

Ladislav Hagara | Komentářů: 1
22.9. 18:11 | Nová verze

Společnost Oracle oficiálně oznámila vydání Java SE 9 (JDK 9), Java Platform Enterprise Edition 8 (Java EE 8) a Java EE 8 Software Development Kit (SDK). Java SE 9 přináší více než 150 nových vlastností.

Ladislav Hagara | Komentářů: 0
Těžíte nějakou kryptoměnu?
 (5%)
 (3%)
 (17%)
 (75%)
Celkem 581 hlasů
 Komentářů: 23, poslední 24.9. 18:12
    Rozcestník

    Dotaz: Streamování z web kamery na youtube

    5.6.2016 11:14 Zapik
    Streamování z web kamery na youtube
    Přečteno: 473×
    Zdravím, pokouším se streamovat z web kamery na youtube dle tohoto návodu:

    http://www.martinkaspar.net/cs/blog/integrace-ip-kamery-na-web/

    Chytlo se to na první ťuk. Jen v mém případě bez zvuku.

    Pokud přehrávám rtsp stream přímo z kamery například ve vlc, tak tam zvuk mám. Nicméně na youtube ne.

    Výpis z ffmpeg:
    Input #0, lavfi, from 'anullsrc':
      Duration: N/A, start: 0.000000, bitrate: 705 kb/s
        Stream #0:0: Audio: pcm_u8, 44100 Hz, stereo, u8, 705 kb/s
    Input #1, rtsp, from 'rtsp://93.93.36.57:554/media.amp?videocodec=h264&resolution=vga':
      Metadata:
        title           : Video Server Session
      Duration: N/A, start: 0.200000, bitrate: N/A
        Stream #1:0: Video: h264 (Baseline), yuv420p, 640x480, 15 tbr, 90k tbn, 180k tbc
        Stream #1:1: Audio: adpcm_g726, 8000 Hz, mono, s16, 32 kb/s
    [flv @ 0x1ca77c0] Codec for stream 0 does not use global headers but container format requires global headers
    Output #0, flv, to 'rtmp://a.rtmp.youtube.com/live2/9r8b-zcbm-kbr6-47xe':
      Metadata:
        encoder         : Lavf56.40.101
        Stream #0:0: Video: h264 ([7][0][0][0] / 0x0007), yuv420p, 640x480, q=2-31, 15 tbr, 1k tbn, 90k tbc
        Stream #0:1: Audio: aac ([10][0][0][0] / 0x000A), 44100 Hz, stereo, fltp, 128 kb/s
        Metadata:
          encoder         : Lavc56.60.100 aac
    Stream mapping:
      Stream #1:0 -> #0:0 (copy)
      Stream #0:0 -> #0:1 (pcm_u8 (native) -> aac (native))
    
    Ve výpisu vídím jak mi ffmpeg rekoduje audio, ale někde cestou dojde ke ztrátě. Jak diagnostikovat v čem je problém?

    Výsledné video je zde: https://www.youtube.com/watch?v=Ece3HtRTPhI

    Kamera chodí jen ve dne, protože jede z baterie a nočním vypnutím šetřím elektriku.

    Díky

    Zapik

    Řešení dotazu:


    Odpovědi

    Chytrex avatar 6.6.2016 11:44 Chytrex | skóre: 28 | Bohumín
    Rozbalit Rozbalit vše Re: Streamování z web kamery na youtube
    Za sebe můžu říct, že tam zvuk mám..
    Hrdý člen KERNEL ULTRAS .:. define QUESTION ((bb) || !(bb)) .:. Odmítám vaši realitu a nahrazuji ji svou vlastní..
    6.6.2016 13:09 Suki | skóre: 2
    Rozbalit Rozbalit vše Re: Streamování z web kamery na youtube
    Za sebe můžu říct také, že mi zvuk funguje :)
    6.6.2016 13:52 MadCatX
    Rozbalit Rozbalit vše Re: Streamování z web kamery na youtube
    Input #0, lavfi, from 'anullsrc':
    Není tohle divné?
    6.6.2016 13:53 Petr Šobáň | skóre: 79 | blog: soban | Olomouc
    Rozbalit Rozbalit vše Re: Streamování z web kamery na youtube
    Taky mě to běží OK i se zvukem.
    6.6.2016 17:38 Zapik
    Rozbalit Rozbalit vše Re: Streamování z web kamery na youtube
    Ano, zvuk už jede. V příkladu kamera neměla zvuk, tak dotyčný vyrobil prázdnou zvukovou stopu, kterou míchal do výsledného streamu. Když jsem ji vypnul, tak to začalo chodit.

    Zapik

    Založit nové vláknoNahoru

    Tiskni Sdílej: Linkuj Jaggni to Vybrali.sme.sk Google Del.icio.us Facebook

    ISSN 1214-1267   www.czech-server.cz
    © 1999-2015 Nitemedia s. r. o. Všechna práva vyhrazena.