abclinuxu.cz AbcLinuxu.cz itbiz.cz ITBiz.cz HDmag.cz HDmag.cz abcprace.cz AbcPráce.cz
AbcLinuxu hledá autory!
Inzerujte na AbcPráce.cz od 950 Kč
Rozšířené hledání
×
včera 12:11 | Nová verze

Byla vydána nová verze 2019-06-20 linuxové distribuce Raspbian určené především pro jednodeskové miniaturní počítače Raspberry Pi. Přehled novinek v poznámkách k vydání. Společně s Raspbianem byl aktualizován také instalační nástroj NOOBS (New Out Of the Box Software). Nejnovější verze Raspbianu vychází z Debianu 10 s kódovým názvem Buster a přináší především podporu Raspberry Pi 4 Model B.

Ladislav Hagara | Komentářů: 0
včera 10:55 | Zajímavý článek

Vývojáři postmarketOS (GitLab) hodnotí dva roky vývoje tohoto v květnu 2017 představeného operačního systému pro chytré telefony vycházejícího z optimalizovaného a nakonfigurovaného Alpine Linuxu s vlastními balíčky [reddit, Hacker News].

Ladislav Hagara | Komentářů: 0
včera 10:11 | IT novinky

Nadace Raspberry Pi na svém blogu oficiálně představila (YouTube) jednodeskový počítač Raspberry Pi 4 Model B. K dispozici je ve třech verzích: 1 GB, 2 GB a 4 GB RAM. Cena začíná na 35 dolarech za verzi s 1 GB RAM. Nejnovější Raspberry Pi podporuje 2 monitory a rozlišení 4K.

Ladislav Hagara | Komentářů: 28
23.6. 18:22 | Komunita

Oznámení, že Ubuntu od vydání 19.10 nebude distribuovat 32bitové balíčky (ani multilib) a uživatelé mohou použít virtualizaci či kontejnery LXD, se setkalo s vlnou nevole, mj. protože i řada 64bitových aplikací využívá 32bitový instalátor. Vývojáři Wine a Steamu oznámili, že zřejmě přestanou Ubuntu od vydání 19.10 podporovat. Diskuze na Redditu: [Wine], [Steam].

Fluttershy, yay! | Komentářů: 55
22.6. 16:11 | IT novinky

Nový open source Windows Terminal představený na vývojářské konferenci Microsoft Build 2019 lze již instalovat z Microsoft Store. Podrobnosti v příspěvku na blogu Microsoftu.

Ladislav Hagara | Komentářů: 10
21.6. 13:11 | Zajímavý projekt

Článek na OMG! Ubuntu! představuje projekt Wayfire, jehož cílem je vývoj kompozitního správce oken inspirovaného Compizem běžícího nad Waylandem. Videoukázky na YouTube. Zdrojové kódy na GitHubu.

Ladislav Hagara | Komentářů: 4
21.6. 09:11 | Zajímavý projekt

Vzdělávací a veřejné instituce mohou získat open source router Turris Omnia formou bezplatné výpůjčky. Router Turris Omnia je poskytován v rámci projektu "Vybudování a ověřovací provoz systému Cyber Threat Intelligence (CTI)" podpořeného Ministerstvem vnitra ČR v rámci programu Bezpečnostního výzkumu pro potřeby státu v letech 2016 - 2021. Podrobnosti na stránkách projektu.

Ladislav Hagara | Komentářů: 1
20.6. 17:00 | Nová verze

Vývojáři Ubuntu informují, že od snapd verze 2.36 lze paralelně instalovat různé verze daného snap balíčku. Lze tak mít nainstalovaný například multimediální přehrávač VLC současně ve verzích stable, candidate, beta i edge.

Ladislav Hagara | Komentářů: 9
20.6. 16:11 | Nová verze

Byla vydána nová stabilní verze 2.6 (2.6.1566.40) webového prohlížeče Vivaldi (Wikipedie). Z novinek vývojáři zdůrazňují možnost blokování reklam s obtěžujícím chováním, vylepšenou podporu uživatelských profilů nebo zobrazení počtu nepřečtených listů na postranní liště. Nejnovější Vivaldi je postaveno na Chromiu 75.0.3770.94.

Ladislav Hagara | Komentářů: 0
20.6. 14:22 | Nová verze

Byla vydána nová verze 1.0.0 open source virtuálního modulárního syntezátoru VCV Rack. Přehled novinek v oznámení o vydání a na GitHubu. K dispozici jsou také open source pluginy. Ukázka práce s VCV Rack na YouTube.

Ladislav Hagara | Komentářů: 0
Jakou verzi jádra Linux typicky používáte na osobním počítači?
 (17%)
 (20%)
 (55%)
 (3%)
 (5%)
Celkem 353 hlasů
 Komentářů: 9, poslední 21.6. 14:42
Rozcestník

Dotaz: ffmpeg a nahrávání přes filtr

18.5. 18:28 jejda
ffmpeg a nahrávání přes filtr
Přečteno: 198×
Ahojte. Pokouším se podle návodu smíchat dva stereo zvuky do jednoho. Problém je, potřebuju jeden z nich předtím prohnat přes pár filtrů, protože kvalita stojí zaprd. Jeden je mikrofón (usbmic) a druhý je virtuální vstup na alsa zvukovce odkud nahrávám zvuky co vydávájí programy (looprec).


$ ffmpeg -f alsa -i usbmic -f alsa -i looprec -filter_complex "[0:a]highpass=10,volume=20dB[0:a];[0:a][1:a]amerge=inputs=2[a]" -map "[a]" -ac 2 test.wav
Guessed Channel Layout for Input Stream #0.0 : stereo
Input #0, alsa, from 'usbmic':
  Duration: N/A, start: 1558195138.708653, bitrate: 1536 kb/s
    Stream #0:0: Audio: pcm_s16le, 48000 Hz, stereo, s16, 1536 kb/s
Guessed Channel Layout for Input Stream #1.0 : stereo
Input #1, alsa, from 'looprec':
  Duration: N/A, start: 1558195138.792802, bitrate: 1536 kb/s
    Stream #1:0: Audio: pcm_s16le, 48000 Hz, stereo, s16, 1536 kb/s
Stream mapping:
  Stream #0:0 (pcm_s16le) -> amerge:in0
  Stream #1:0 (pcm_s16le) -> amerge:in1
  amerge -> Stream #0:0 (pcm_s16le)
Press [q] to stop, [?] for help
[Parsed_amerge_2 @ 0x55d4d2c80700] No channel layout for input 1
[Parsed_amerge_2 @ 0x55d4d2c80700] Input channel layouts overlap: output layout will be determined by the number of distinct input channels
[Parsed_volume_1 @ 0x55d4d2c7f480] Cannot select sample rate for the link between filters Parsed_volume_1 and Parsed_highpass_0.
Error reinitializing filters!
Failed to inject frame into filter network: Invalid argument
Error while processing the decoded data for stream #1:0
Conversion failed!
Bude tam nejspíš zmatek s těma labels v hranatých závorkách. Bez těch filtrů highpass a volume to downmixuje hezky.

Řešení dotazu:


Odpovědi

18.5. 19:09 jejda
Rozbalit Rozbalit vše Re: ffmpeg a nahrávání přes filtr
Ještě doplním že nahrávání samotného mikrofonního vstupu přes filtry
ffmpeg -f alsa -i usbmic -filter_complex "highpass=10,volume=20dB" -ac 2 test.wav
funguje jak má.
18.5. 19:29 NN
Rozbalit Rozbalit vše Re: ffmpeg a nahrávání přes filtr
Mozna by stacilo upravit vystupni label prvniho streamu, jinak to poleze do merge nezmenene..
ffmpeg -f alsa -i usbmic -f alsa -i looprec -filter_complex "[0:a]highpass=10,volume=20dB[aout];[aout][1:a]amerge=inputs=2[a]" -map "[a]" -ac 2 test.wav
18.5. 19:56 jejda
Rozbalit Rozbalit vše Re: ffmpeg a nahrávání přes filtr
Nejde. Ale teď už to hlásí jinačí chybu:
The following filters could not choose their formats: Parsed_amerge_2
Consider inserting the (a)format filter near their input or output.
Moc rozumu z toho teda nemám.
Řešení 1× (jejda (tazatel))
20.5. 10:21 jejda
Rozbalit Rozbalit vše Re: ffmpeg a nahrávání přes filtr
Tak se nakonec povedlo. Ten mikrofonní stream se musí přesamplovat filtrem aformat na 48kHz než vyleze z toho prvního chainu (před tím středníkem), jinak to amerge nepobere. Nechápu k čemu, když z alsy leze 48kHz by default. Navíc ffmpeg si to při spuštění sám detekuje ...
Stream #0:0: Audio: pcm_s16le, 48000 Hz, stereo, s16, 1536 kb/s
Ale budiž.

Celý ten příkaz je ale tak nechutně dlouhý, že jsem si to rači šoupnul do skriptu.

Co mě příjemně překvapilo, tak to vůbec není out-of-sync. Čekal jsem aspon 50-100 milisekund zpoždění u mikrofonu. V audacity musím mít nastaveno 130ms. Existuje vůbec nejaký commandline program na nahrávání karaoke? Toto by se na to dalo v klidu použít, když to nemá latence ..:-)

Při odesílání komentáře mi to píše: "Značka C0\+\C2\|\C1 není povolena!" (bez těch zpětných lomítek) Co to znamená? Nemůžu sem kvuli tomu dát ten funkční ffmpeg filtr

Řešení 1× (jejda (tazatel))
20.5. 21:04 jejda
Rozbalit Rozbalit vše Re: ffmpeg a nahrávání přes filtr
V praxi se bohužel ukázalo, že neexistuje univerzální nastavení filtrů pro všecky situace. Takto je ten filtr natvrdo zadrátovaný a jakmile se to jednou nahraje blbě, tak už to nejde nijak dodatečně opravit. Protože Audacity neumí nahrávat z více nezávislých zdrojů naráz zatím to řeším tak, že ffmpegem vyrobím ze dvou stereo vstupů jeden čtyřkanálový wav.
ffmpeg -f alsa -i usbmic -f alsa -i looprec -filter_complex "join=inputs=2:channel_layout=quad" output.wav
A případné filtrování a downmix udělám ručně v audacity. Je to sice víc práce ale výsledek za to stojí.

Založit nové vláknoNahoru

Tiskni Sdílej: Linkuj Jaggni to Vybrali.sme.sk Google Del.icio.us Facebook

ISSN 1214-1267   www.czech-server.cz
© 1999-2015 Nitemedia s. r. o. Všechna práva vyhrazena.