abclinuxu.cz AbcLinuxu.cz itbiz.cz ITBiz.cz HDmag.cz HDmag.cz abcprace.cz AbcPráce.cz
AbcLinuxu hledá autory!
Inzerujte na AbcPráce.cz od 950 Kč
Rozšířené hledání
×

včera 14:44 | Pozvánky

Spolek OpenAlt zve příznivce otevřených technologií a otevřeného přístupu na 151. brněnský sraz, který proběhne v pátek 20. 4. od 18:00 hodin v restauraci Benjamin na Drobného 46.

Ladislav Hagara | Komentářů: 0
včera 13:33 | Nová verze

Byla vydána verze 18.04.0 KDE Aplikací (KDE Applications). Přehled novinek v kompletním seznamu změn a na stránce s dalšími informacemi.

Ladislav Hagara | Komentářů: 0
včera 13:11 | Nová verze

Bylo oznámeno vydání nové stabilní verze 1.26 a beta verze 1.27 open source textového editoru Atom (Wikipedie). Přehled novinek i s náhledy v příspěvku na blogu. Podrobnosti v poznámkách k vydání.

Ladislav Hagara | Komentářů: 0
včera 12:55 | Komunita

Dle plánu byla dnes vydána hra Rise of the Tomb Raider (Wikipedie) pro Linux. Koupit ji lze za 49,99 €.

Ladislav Hagara | Komentářů: 2
včera 09:55 | Bezpečnostní upozornění

Společnost Oracle vydala čtvrtletní bezpečnostní aktualizaci svých softwarových produktů (CPU, Critical Patch Update). Opraveno bylo celkově 254 bezpečnostních chyb. V Oracle Java SE je například opraveno 14 bezpečnostních chyb. Vzdáleně zneužitelných bez autentizace je 12 z nich. V Oracle MySQL je opraveno 33 bezpečnostních chyb. Vzdáleně zneužitelné bez autentizace jsou 2 z nich.

Ladislav Hagara | Komentářů: 3
18.4. 23:11 | Nová verze

Byla vydána verze 8.0 linuxové distribuce Trisquel GNU/Linux. Nejnovější verze Trisquel nese kódové jméno Flidas a bude podporována do roku 2021. Výchozím prostředím je nově MATE 1.12. Trisquel patří mezi svobodné distribuce doporučované Nadací pro svobodný software (FSF).

Ladislav Hagara | Komentářů: 0
18.4. 16:00 | Nová verze

Byla vydána nová verze 27.9.0 webového prohlížeče Pale Moon (Wikipedie) vycházejícího z Firefoxu. Přehled novinek v poznámkách k vydání. Jedná se o poslední větší aktualizaci verze 27. Vývojáři se zaměří na novou verzi 28.

Ladislav Hagara | Komentářů: 0
18.4. 12:00 | Nová verze

Google Chrome 66 byl prohlášen za stabilní (YouTube). Nejnovější stabilní verze 66.0.3359.117 tohoto webového prohlížeče přináší řadu oprav a vylepšení. Vylepšeny byly také nástroje pro vývojáře (YouTube). Opraveno bylo 62 bezpečnostních chyb.

Ladislav Hagara | Komentářů: 0
18.4. 06:00 | Nová verze

Byla vydána druhá RC verze nové řady 2.10 svobodné aplikace pro úpravu a vytváření rastrové grafiky GIMP. Přehled novinek i s náhledy v oznámení o vydání.

Ladislav Hagara | Komentářů: 0
17.4. 23:39 | Pozvánky

Již tento čtvrtek (19. 4.) se v posluchárně 107 na Fakultě informačních technologií ČVUT v Praze Dejvicích odehraje večer s Turrisem, tentokrát zaměřený na nový modulární router MOX. Mluvit o něm budou Patrick Zandl a Ondřej Filip, ale bude i prostor pro dotazy a diskuzi s vývojáři. Akce začíná v 18:00 a plánovaný konec je v 19:45. Mapka, kde se nachází daná posluchárna, a možnost registrace je k dispozici na webu CZ.NIC.

Miška | Komentářů: 0
Používáte na serverech port knocking?
 (2%)
 (7%)
 (47%)
 (27%)
 (16%)
Celkem 323 hlasů
 Komentářů: 29, poslední 5.4. 12:25
    Rozcestník

    Dotaz: debian - ffmpeg - prevod videa do flv - chyby audio

    4.8.2007 13:29 LesTR | skóre: 17 | Plzeň
    debian - ffmpeg - prevod videa do flv - chyby audio
    Přečteno: 1590×
    Zdravím,
    snažím se převést video do formátu přehratelného pomocí flashe.
    Narazil jsem na ffmpeg, který dokáže video převést, ale ve výsledném souboru mi chybí audio.
    Pomocí googlu jsem našel, že je třeba nastavit audio kodek pomocí -acodec např. na mp3.
    Původnímu balíčku z debianu, chyběly volby --enable-libmp3lame --enable-encoder=mp3, stáhl jsem si tedy zdroj balíčku, přidal tyto 2 volby a přeložil balíček.
    Pokud zadám ffmpeg -formats, tak v audiu vidím podporu pro mp3. Při převádění videa ale dostávám nasledujíci:
    Hugo:/tmp# ffmpeg -i video.mpeg  -acodec mp3 video.flv
    FFmpeg version SVN-rUNKNOWN, Copyright (c) 2000-2007 Fabrice Bellard, et al.
      configuration: --enable-gpl --enable-pp --enable-swscaler --enable-pthreads
    --enable-libmp3lame --enable-encoder=mp3 --enable-libvorbis --enable-libtheora --enable-libogg 
    --enable-liba52 --enable-libdts --enable-libgsm --enable-dc1394 --disable-debug --enable-shared
    --prefix=/usr
      libavutil version: 1d.49.3.0
      libavcodec version: 1d.51.38.0
      libavformat version: 1d.51.10.0
      built on Aug  4 2007 12:35:34, gcc: 4.1.3 20070718 (prerelease) (Debian 4.1.2-14)
    Input #0, mpeg, from 'video.mpeg':
      Duration: 00:01:40.8, start: 0.239422, bitrate: 1530 kb/s
      Stream #0.0[0x1e0]: Video: mpeg1video, yuv420p, 352x240, 1416 kb/s, 29.97 fps(r)
      Stream #0.1[0x1c0]: Audio: mp2, 44100 Hz, stereo, 64 kb/s
    Output #0, flv, to 'video.flv':
      Stream #0.0: Video: flv, yuv420p, 352x240, q=2-31, 200 kb/s, 29.97 fps(c)
      Stream #0.1: Audio: 0x0000, 44100 Hz, stereo, 64 kb/s
    Stream mapping:
      Stream #0.0 -> #0.0
      Stream #0.1 -> #0.1
    Unsupported codec for output stream #0.1
    

    Může mě někdo prosím nasměrovat, kde může být zakopán pes?
    Případně nasměrovat na jinou cestu konverze?
    Googlim to už skoro týden a né a né se z toho vyhrabat. Předem děkuji za reakce.
    Distribuce je Debian Sid
    Save The World - http://www.worldcommunitygrid.org/ LesTR

    Odpovědi

    4.8.2007 17:50 Ash | skóre: 53
    Rozbalit Rozbalit vše Re: debian - ffmpeg - prevod videa do flv - chyby audio
    Já mpeg na flv převádím třeba takto:
    mpeg=soubor.mpg
    flv=soubor.flv
    
    ffmpeg \
    -i "$mpeg" \
    -ab 56k \
    -ar 22050 \
    -b 500k \
    -r 15 \
    -s 320x240 \
    "$flv"
    
    i když neříkám, že to je zrovna odpověď na váš dotaz :)
    4.8.2007 20:30 LesTR | skóre: 17 | Plzeň
    Rozbalit Rozbalit vše Re: debian - ffmpeg - prevod videa do flv - chyby audio
    Nevim, proc, ale vysledna binarka z upraveneho balicku nebyla slinkovana s libmp3lame, coz mel zajistit parametr --enable-libmp3lame. Chybu pri kompilaci jsem ale nezaznamenal, v config.h byla zapnuta. Trochu zahada.
    Stahnul jsem si tedy balicek z multimedia-debian.org a tam je slinkovani v poradku.
    Save The World - http://www.worldcommunitygrid.org/ LesTR
    8.8.2008 06:22 Jindr a Vavruška
    Rozbalit Rozbalit vše Re: debian - ffmpeg - prevod videa do flv - chyby audio
    Správně má být: ... -acodec libmp3lame ...

    Podobně pro kódování do AAC je potřeba napsat: ... -acodec libfaac ...

    Najdete to ve výstupu příkazu ffmpeg -formats

    Založit nové vláknoNahoru

    Tiskni Sdílej: Linkuj Jaggni to Vybrali.sme.sk Google Del.icio.us Facebook

    ISSN 1214-1267   www.czech-server.cz
    © 1999-2015 Nitemedia s. r. o. Všechna práva vyhrazena.