abclinuxu.cz AbcLinuxu.cz itbiz.cz ITBiz.cz HDmag.cz HDmag.cz abcprace.cz AbcPráce.cz
AbcLinuxu hledá autory!
Inzerujte na AbcPráce.cz od 950 Kč
Rozšířené hledání
×

dnes 00:22 | Bezpečnostní upozornění

Nitay Artenstein z Exodus Intelligence se v příspěvku na blogu společnosti podrobně věnuje bezpečností chybě Broadpwn (CVE-2017-9417). Její analýzu provedl také Zhuowei Zhang na blogu Booster Ok. Jedná se o chybu ve firmwaru Wi-Fi chipsetů BCM 43xx od Broadcomu. Útočník může vzdáleně získat kontrolu nad zařízením. Chyba byla již opravena v macOS, iOS i Androidu [Hacker News].

Ladislav Hagara | Komentářů: 0
včera 22:55 | IT novinky

Intel končí s vývojovými deskami Joule, Edison, Galileo a také s Arduino 101 a Curie.

Ladislav Hagara | Komentářů: 0
včera 14:44 | Nová verze

Byla vydána nová verze 42.3 linuxové distribuce openSUSE Leap. Jedná se už o třetí vydání, které staví na SUSE Linux Enterprise (SLE). Výchozím jádrem je opět poslední LTS verze, tedy řada 4.4. Podrobnosti v oznámení o vydání a v poznámkách k vydání.

Ladislav Hagara | Komentářů: 15
včera 14:30 | Nová verze

Google Chrome 60 byl prohlášen za stabilní. Nejnovější stabilní verze 60.0.3112.78 tohoto webového prohlížeče přináší řadu oprav a vylepšení. Vylepšeny byly také nástroje pro vývojáře (YouTube). Opraveno bylo 40 bezpečnostních chyb.

Ladislav Hagara | Komentářů: 0
25.7. 22:33 | IT novinky

Společnosti Adobe, Apple, Facebook, Google, Microsoft a Mozilla společně oznámily konec Flashe. Podpora Flashe oficiálně skončí na konci roku 2020.

Ladislav Hagara | Komentářů: 14
25.7. 05:55 | Komunita

Před 10 lety, v červenci 2007, se začal prodávat svobodný chytrý telefon Neo 1973 (vnitřní označení GTA01). Za jeho vývojem stáli vývojáři projektu Openmoko (Wikipedie). O rok později bylo možné koupit jejich druhý telefon Neo FreeRunner (GTA02). V roce 2011 byl představena platforma GTA04. Tuto platformu využívá také projekt Neo900, jehož cílem je vývoj nástupce telefonu Nokia N900. Nahlédnutí do historie Openmoko a další informace v článku na Vanille.de [Hacker News].

Ladislav Hagara | Komentářů: 23
25.7. 04:44 | Komunita

Tým Debianu zabývající se reprodukovatelnými sestaveními (Reproducible Builds), tj. kdokoli může nezávisle ověřit, že daný binární .deb balíček vznikl překladem daných zdrojových kódů, oznámil, že 94 % balíčků Debianu lze přeložit a sestavit reprodukovatelně. V únory 2015 to bylo 83 % [reddit].

Ladislav Hagara | Komentářů: 4
24.7. 11:22 | Komunita

Mozilla.cz informuje, že na blogu Mozilly věnovaném bezpečnosti byly zveřejněny výsledky bezpečnostního auditu služby Firefox Accounts, v českých překladech účet Firefoxu, sloužící hlavně k přihlašování k synchronizaci Firefox Sync. Nalezeno bylo celkem 15 bezpečnostních chyb, z toho jedna byla označena jako kritická a tři jako vážné.

Ladislav Hagara | Komentářů: 0
24.7. 11:00 | Nová verze

Byla vydána první stabilní verze 1.0 svobodného komunikačního softwaru Ring (Wikipedie). Ring, původně SFLphone, je součástí projektu GNU [reddit].

Ladislav Hagara | Komentářů: 4
24.7. 06:00 | Zajímavý projekt

Warner Skoch na svých stránkách zveřejnil návod (YouTube) na zhotovení kapesní herní konzole MintyPi. Konzole MintyPi je postavena na Raspberry Pi Zero W a RetroPie. Jako obal slouží plechová krabička od mentolek.

Ladislav Hagara | Komentářů: 0
Těžíte nějakou kryptoměnu?
 (4%)
 (2%)
 (20%)
 (74%)
Celkem 105 hlasů
 Komentářů: 6, poslední včera 18:53
    Rozcestník

    Dotaz: Konvertovanie 3GP 220x176

    10.6.2009 17:42 samo
    Konvertovanie 3GP 220x176
    Přečteno: 162×

    FFmpeg version 0.5, Copyright (c) 2000-2009 Fabrice Bellard, et al.
    configuration: --enable-libmp3lame --enable-libfaac --enable-libfaac --enable-libamr-nb --enable-libamr-wb --enable-nonfree --enable-gpl
    libavutil 49.15. 0 / 49.15. 0
    libavcodec 52.20. 0 / 52.20. 0
    libavformat 52.31. 0 / 52.31. 0
    libavdevice 52. 1. 0 / 52. 1. 0
    built on Mar 24 2009 15:55:43, gcc: 4.3.2
    Input #0, avi, from '/media/MyBook/My files/Filmy/Bathory.avi':
    Duration: 00:00:00.62, start: 0.000000, bitrate: 533 kb/s
    Stream #0.0: Video: mpeg4, yuv420p, 640x480 [PAR 1:1 DAR 4:3], 29 tbr, 29 tbn, 29 tbc
    Stream #0.1: Audio: mp2, 22050 Hz, stereo, s16, 64 kb/s
    Output #0, 3gp, to '/media/MyBook/My files/Filmy/Bathory.3gp':
    Stream #0.0: Video: mpeg4, yuv420p, 220x176 [PAR 16:15 DAR 4:3], q=2-31, 200 kb/s, 90k tbn, 29.97 tbc
    Stream #0.1: Audio: libfaac, 22050 Hz, mono, s16, 64 kb/s
    Stream mapping:
    Stream #0.0 -> #0.0
    Stream #0.1 -> #0.1
    Press [q] to stop encoding
    frame= 18 fps= 0 q=2.0 Lsize= 7kB time=0.46 bitrate= 117.9kbits/s

    video:3kB audio:2kB global headers:0kB muxing overhead 23.944938%


    A viac to už nič nerobí

     

    Takže mi súbor neskonvertuje, neviem si stým rady.

    Na otázku zatím nikdo bohužel neodpověděl.

    Založit nové vláknoNahoru

    Tiskni Sdílej: Linkuj Jaggni to Vybrali.sme.sk Google Del.icio.us Facebook

    ISSN 1214-1267   www.czech-server.cz
    © 1999-2015 Nitemedia s. r. o. Všechna práva vyhrazena.