abclinuxu.cz AbcLinuxu.cz itbiz.cz ITBiz.cz HDmag.cz HDmag.cz abcprace.cz AbcPráce.cz
AbcLinuxu hledá autory!
Inzerujte na AbcPráce.cz od 950 Kč
Rozšířené hledání
×
    dnes 00:11 | Humor

    Google vyvíjí softwarovou klávesnici Gboard pro mobilní telefony. Jeho japonská pobočka vyvíjí klávesnice hardwarové. Představovala je obvykle na apríla. Letošní poněkud delší prototyp Gboard Bar byl představen (YouTube) až v říjnu. Stejně jako loňský Gboard Yunomi.

    Ladislav Hagara | Komentářů: 0
    včera 14:11 | Pozvánky

    Zítra a pozítří probíhá Hackathon veřejné správy 4.0: "Stát disponuje nepředstavitelným množstvím dat. Jsou mimo jiné ukrytá v tisících informačních systémů, za jejichž vznik a údržbu stát ročně zaplatí miliardy korun. Mnoho dat se ale do těchto systémů zadává špatně či neúplně, některá zcela chybí. Jiná jsou duplicitní, další si protiřečí. A o tom, jak jsou na tom tyto systémy s uživatelským komfortem, a do kolika z nich může veřejnost

    … více »
    Ladislav Hagara | Komentářů: 2
    včera 12:00 | IT novinky

    Po Make-A-Video byly představeny další text-to-video AI systémy pro generování videí z textového popisu. Tentokrát od Googlu. Imagen Video a Phenaki.

    Ladislav Hagara | Komentářů: 0
    včera 11:44 | Komunita

    Na YouTube byly zveřejněny videozáznamy přednášek z letošního OpenAltu. Do programu byly přidány odkazy na jednotlivé záznamy.

    Ladislav Hagara | Komentářů: 0
    včera 10:00 | Nová verze

    Byla vydána nová stabilní verze 5.5 (aktuálně 5.5.2805.32) webového prohlížeče Vivaldi (Wikipedie). Postavena je na Chromiu 106.0.5249.91. Přehled novinek v příspěvku na blogu a ve videu na YouTube.

    Ladislav Hagara | Komentářů: 0
    včera 09:00 | Zajímavý projekt

    Volně ke stažení je kniha Kyberpohádky (pdf) aneb vzdělávání dětí ve věku 4 až 6 let v oblasti kybernetické bezpečnosti.

    Ladislav Hagara | Komentářů: 4
    včera 08:00 | IT novinky

    Standard Matter (Wikipedie, GitHub), původně Connected Home over IP (CHIP), pro propojení IoT a domácí automatizaci byl vydán ve verzi 1.0.

    Ladislav Hagara | Komentářů: 2
    včera 06:00 | Komunita

    Byly publikovány videozáznamy přednášek z letošní Open Source Firmware Conference (OSFC) konané 19. až 21. září. Přístupné jsou přímo z programu.

    Ladislav Hagara | Komentářů: 0
    5.10. 22:33 | Komunita

    Mark Shuttleworth, CEO společnosti Canonical stojící za Ubuntu, na YouTube představil beta verzi nové vylepšené desetileté podpory Ubuntu pojmenované Ubuntu Pro. Ta dosavadní podporu z názvem "Ubuntu Advantage for Infrastructure", nově "Ubuntu Pro (Infra-only)", rozšiřuje o více než 23 000 balíčků. Podporu Ubuntu Pro lze po registraci využívat zdarma až pro 5 počítačů.

    Ladislav Hagara | Komentářů: 5
    5.10. 17:11 | Zajímavý software

    Na konferenci XDC 2022 byl mimo jiné představen nový open source Vulkan ovladač pro Nvidia GPU s názvem NVK. Podrobnosti v příspěvku na blogu společnost Collabora.

    Ladislav Hagara | Komentářů: 0
    Jaký filtr modrého světla používáte u počítače?
     (53%)
     (5%)
     (4%)
     (45%)
    Celkem 112 hlasů
     Komentářů: 6, poslední včera 22:25
    Rozcestník


    Dotaz: Sada obrazku to video

    27.10.2002 18:56 Michal Svanda
    Sada obrazku to video
    Přečteno: 115×
    Ahoj. Potreboval bych nejaky soft, ktery ze sady obrazku (cca 400 snimku) umi udelat video v nejakem a vseobecne pouzitelnem formatu (avi, mpeg, ...). Experimenty s mpeg_encode nedavaji skoro zadne vysledky. Dekuji!

    Odpovědi

    27.10.2002 19:10 finn
    Rozbalit Rozbalit vše Sada obrazku to video
    myslim, ze tohle umi treba gimp, ale nikdy jsem to nezkousel
    Selmi avatar 28.10.2002 09:16 Selmi | skóre: 17 | Košice
    Rozbalit Rozbalit vše Sada obrazku to video
    mencoder (www.mplayerhq.hu) treba pozriet dokumentaciu, ale ja pouzivam toto a zatial som bol uplne spokojny
    28.10.2002 10:33 Michal Švanda | skóre: 19 | blog: vlkovo
    Rozbalit Rozbalit vše Sada obrazku to video
    Zkusil jsem tuto moznost a skoncilo to neopravnenym pristupem do pameti a to velmi brzy po spusteni :-( Libovolno, zda poustim v X nebo v konzoli. Nicmene tato moznost je dost zajimava.
    Nemuze to souviset s prekladem v GCC 2.96?
    28.10.2002 21:48 Michal Švanda | skóre: 19 | blog: vlkovo
    Rozbalit Rozbalit vše Sada obrazku to video
    Tak tohle uz jsem vyresil. Prechod na GCC 3.0.4 a je to, uz to pristupuje do pameti zcela opravnene. :-) Uz se s tim nejak snad poperu, jen musim MEncoder presvedcit, ze nechci u obrazku menit rozmery z 400x400 na 100x400. ;-)

    Kazdopadne diky za radu!

    28.10.2002 18:15 Arnost
    Rozbalit Rozbalit vše Sada obrazku to video
    mam pocit ze ffmpeg (ffmpeg.sf.net)
    28.10.2002 21:09 Michal Švanda | skóre: 19 | blog: vlkovo
    Rozbalit Rozbalit vše Sada obrazku to video
    Diky za radu, ale :-( :

    [michal@eleanor jpg]$ ffmpeg -r 0.04 -i %04d.jpg ./a.mpg
    mjpeg: JFIF header found (version: 1.1)
    Input #0, jpeg, from '%04d.jpg':
    Stream #0.0: Video: mjpeg, 400x400, 0.04 fps
    Output #0, mpeg, to './a.mpg':
    Stream #0.0: Video: mpeg1video, 400x400, 0.04 fps, q=2-31, 200 kb/s
    Stream mapping:
    Stream #0.0 -> #0.0
    Press [q] to stop encoding
    mjpeg: JFIF header found (version: 1.1)
    Neoprávněný přístup do paměti (SIGSEGV) (core dumped)

    Totez chovani jako s pouzitim mencoderu. Je to uz nejake podezrele. Netusi nekdo, co se to deje? Pouzivam RH7.1, GCC 2.96-85, AMD K6-III-400 MHz, jadro 2.4.9-34.

    Selmi avatar 29.10.2002 09:15 Selmi | skóre: 17 | Košice
    Rozbalit Rozbalit vše Sada obrazku to video
    nepouzivaj gcc 2.96 :-( mimochodom mencoder neni jediny program ktory ma problemy, takisto sa zosype lame, niektore verzie wine,...
    29.10.2002 13:20 Michal Švanda | skóre: 19 | blog: vlkovo
    Rozbalit Rozbalit vše Sada obrazku to video
    Prekompiloval jsem ffmpeg s pomoci gcc 3.0.4 a jeho chovani se nezmenilo, cili havaruje. MEncoder ale funguje korektne.

    Založit nové vláknoNahoru

    Tiskni Sdílej: Linkuj Jaggni to Vybrali.sme.sk Google Del.icio.us Facebook

    ISSN 1214-1267   www.czech-server.cz
    © 1999-2015 Nitemedia s. r. o. Všechna práva vyhrazena.