abclinuxu.cz AbcLinuxu.cz itbiz.cz ITBiz.cz HDmag.cz HDmag.cz abcprace.cz AbcPráce.cz
AbcLinuxu hledá autory!
Inzerujte na AbcPráce.cz od 950 Kč
Rozšířené hledání
×
včera 12:00 | Nová verze

Byla vydána nová vývojová verze datového formátu a souvisejících nástrojů Relational pipes. Hlavní novinkou verze v0.16 je použití abstraktní vrstvy ODBC, díky které lze pracovat s libovolným DBMS, např. PostgreSQL nebo MySQL či MariaDB (dříve šlo SQL transformace provádět jen v SQLite). Dále v této verzi přibyl vstupní modul pro audio systém JACK, skrze který lze přijímat MIDI zprávy.

xkucf03 | Komentářů: 7
včera 00:55 | Zajímavý článek

Alyssa Rosenzweig v příspěvku na blogu společnosti Collabora informuje o novinkách ve vývoji open source ovladačů pro GPU Mali. Na GPU Mali-G31 bez binárního blobu již běží Wayland kompozitory včetně GNOME 3, hra Neverball nebo akcelerace videa v přehrávačích mpv a Kodi.

Ladislav Hagara | Komentářů: 0
5.6. 23:33 | Zajímavý článek

Nová čísla časopisů od nakladatelství Raspberry Pi: MagPi 94 (pdf), HackSpace 31 (pdf) a Wireframe 39 (pdf).

Ladislav Hagara | Komentářů: 0
5.6. 23:22 | Zajímavý software

Streamhut umožňuje streamování práce v terminálu na web bez nutnosti cokoli instalovat. Zdrojové kódy služby jsou k dispozici na GitHubu pod licencí Apache.

Ladislav Hagara | Komentářů: 0
5.6. 02:00 | Nová verze

Turris OS, operační systém pro síťová zařízení Turris, byl vydán v nové major verzi 5.0. Vychází z OpenWrt 19.07.3. Podrobnosti na GitLabu.

Ladislav Hagara | Komentářů: 0
5.6. 01:00 | Nová verze

Byla vydána verze 1.44.0 programovacího jazyka Rust (Wikipedie). Podrobnosti v poznámkách k vydání. Vyzkoušet Rust lze například na stránce Rust by Example.

Ladislav Hagara | Komentářů: 0
4.6. 17:00 | Bezpečnostní upozornění

Nedávno byla vydána nová verze 9.4.6 nástroje pro řízení a správu IT zařízení a služeb GLPI (Wikipedie). Opraveno bylo několik bezpečnostních chyb. Například také SQL injection CVE-2020-11032 aneb email z ';-- Have I Been Pwned? dokáže smazat celý ticket systém.

Ladislav Hagara | Komentářů: 0
4.6. 13:00 | Zajímavý článek

MojeFedora.cz informuje, že Firefox 77 pro Fedoru přináší akceleraci videa. Firefox 77 pro Fedoru obsahuje patche, které konečně přináší podporu pro VA-API, tedy hardwarovou akceleraci videa. Podpora pro VA-API momentálně funguje pouze na Waylandu.

Ladislav Hagara | Komentářů: 4
4.6. 12:00 | Pozvánky

Sdružení CESNET dnes opět po roce pořádá jednodenní seminář věnovaný internetovému protokolu IPv6. Tentokrát on-line a s názvem Svět bez IPv4. K dispozici jsou také prezentace a záznamy přednášek z loňského roku.

Ladislav Hagara | Komentářů: 0
4.6. 08:00 | Nová verze

Byla vydána nová stabilní verze 2.83 svobodného 3D softwaru Blender. Přehled novinek v oznámení o vydání a na YouTube. Jedná se o první verzi Blenderu s prodlouženou dvouletou podporou (LTS).

Ladislav Hagara | Komentářů: 6
Používáte některé open-source řešení [protokol] pro šifrovaný instant messaging?
 (33%)
 (20%)
 (4%)
 (12%)
 (13%)
 (5%)
 (12%)
 (23%)
Celkem 92 hlasů
 Komentářů: 8, poslední včera 13:40
Rozcestník

Dotaz: VLC nepřehrává obraz v souboru .mov

27.11.2018 21:06 georby
VLC nepřehrává obraz v souboru .mov
Přečteno: 230×
Fotoaparát NIKON mi ukládá videa v .mov a ve VLC je nepřehraju. Zobrazí se jen první snímek a pak dál už jde jen zvuk. Zkoušel jsem to i převést do .mp4 přímo ve VLC, ale výsledek stejný. Lenovo Yoga 300 IBR, z důvodu nedostatku paměti eMMC 32 GB, kdy se tam nevešla ani čistá instalce WIN 10 se kterou se prodává, jsem přeinstaloval na KUBUNTU.

Odpovědi

27.11.2018 21:36 PetebLazar
Rozbalit Rozbalit vše Re: VLC nepřehrává obraz v souboru .mov

Zkuste dotycny otevrit soubor v programu MediaInfo a postněte se parametry videa (volba v menu Text). Dá se odhadovat, že půjde o formát H.264 asi spíše vyššího než nižšího bitrate.

Pokud jsem to dohledal správně tak dotyčný notebook má relativně slabý Atom N3060, který při SW přehrávání určitě nemá sil nazbyt. Na druhou stranu kousnutí by naznačovalo spíš na chybu při akcelerovaném přehrávaní DXVA(Windows), VAAPI(Linux). Zkuste projit nastaveni VLC a případně (ne)povolit akceleraci přehrávání. Pozn. akcelerací je míně částěčné(úplné) dekódování obsahu skrze GPU.

28.11.2018 19:00 georby
Rozbalit Rozbalit vše Re: VLC nepřehrává obraz v souboru .mov
Tohle jsou informace z Mediainfo. To nastavení VLC nemůžu najít.

General Complete name : /home/petr/Plocha/DSCN9731.MOV Format : MPEG-4 Format profile : QuickTime Codec ID : qt 2007.09 (qt /niko) File size : 28.6 MiB Duration : 14 s 0 ms Overall bit rate : 17.1 Mb/s Encoded date : UTC 2018-11-24 09:47:29 Tagged date : UTC 2018-11-24 09:47:29 NCDT : NCTG

Video ID : 1 Format : AVC Format/Info : Advanced Video Codec Format profile : Baseline@L4.1 Format settings : 2 Ref Frames Format settings, CABAC : No Format settings, ReFrames : 2 frames Format settings, GOP : M=1, N=25 Codec ID : avc1 Codec ID/Info : Advanced Video Coding Duration : 14 s 0 ms Bit rate : 15.5 Mb/s Width : 1 920 pixels Height : 1 080 pixels Display aspect ratio : 16:9 Frame rate mode : Constant Frame rate : 25.000 FPS Color space : YUV Chroma subsampling : 4:2:0 Bit depth : 8 bits Scan type : Progressive Bits/(Pixel*Frame) : 0.299 Stream size : 25.9 MiB (91%) Language : English Encoded date : UTC 2018-11-24 09:47:29 Tagged date : UTC 2018-11-24 09:47:29 Color range : Full Color primaries : BT.709 Transfer characteristics : BT.709 Matrix coefficients : BT.709

Audio ID : 2 Format : PCM Format settings : Little / Signed Codec ID : sowt Duration : 14 s 0 ms Bit rate mode : Constant Bit rate : 1 536 kb/s Channel(s) : 2 channels Channel positions : Front: L R Sampling rate : 48.0 kHz Bit depth : 16 bits Stream size : 2.56 MiB (9%) Language : English Encoded date : UTC 2018-11-24 09:47:29 Tagged date : UTC 2018-11-24 09:47:29

28.11.2018 19:46 PetebLazar
Rozbalit Rozbalit vše Re: VLC nepřehrává obraz v souboru .mov

Spusťte samotný VLC a v menu Tools-Preferences-Input/Codecs(v cestine asi Nastroje-Nastaveni-Vstup/Kodeky) by mohla byt volba Hardware-accelerated decoding a tu zkuste dat na disable(vypnuto). Zkuste otevrit a prehrat ten .mov. Mam ovšem obavu, ze bez úspěšné akcelerace se tento slabý CPU nechytne.

Dvě jádra Atom na 2GHz+ asi bude na FullHD H.264 s bitrate 17Mbps fakt málo, možná zkuste přehrávání řádkovým ffplay (stavícím snad na ffmpeg). Nevím nakolik je dnes podpora VA API (Inte), VDPAU (Nvidia), XvBA (AMD) součástí standardních schopností(detekcí).

k3dAR avatar 28.11.2018 19:58 k3dAR | skóre: 58
Rozbalit Rozbalit vše Re: VLC nepřehrává obraz v souboru .mov
a zkusil bych to prehrat s mpv
porad nemam telo, ale uz mam hlavu... nobody
28.11.2018 20:51 georby
Rozbalit Rozbalit vše Re: VLC nepřehrává obraz v souboru .mov
V nastavení VLC jsem nic takového nenašel, ale instaloval jsem MPV a beží to. Děkuji za pomoc, pro mě vyřešeno. VLC dávám pryč.

Založit nové vláknoNahoru

Tiskni Sdílej: Linkuj Jaggni to Vybrali.sme.sk Google Del.icio.us Facebook

ISSN 1214-1267   www.czech-server.cz
© 1999-2015 Nitemedia s. r. o. Všechna práva vyhrazena.