abclinuxu.cz AbcLinuxu.cz itbiz.cz ITBiz.cz HDmag.cz HDmag.cz abcprace.cz AbcPráce.cz
AbcLinuxu hledá autory!
Inzerujte na AbcPráce.cz od 950 Kč
Rozšířené hledání
×
dnes 11:55 | Zajímavý článek

PINE64 přináší na blogu pravidelný souhrn novinek. Píše se tam třeba o Quartz64, hardwarové klávesnici k PinePhone nebo novinkách v Plasma Mobile 5.22.

joejoe | Komentářů: 0
dnes 08:00 | Bezpečnostní upozornění

Byly publikovány informace o útoku na TLS s názvem ALPACA Attack (paper: ALPACA: Application Layer Protocol Confusion - Analyzing and Mitigating Cracks in TLS Authentication). Jak už to dnes bývá, útok má vlastní doménu a logo. Pokud mají různé služby, například www a ftp, běžící na serveru stejný certifikát (hvězdičkový certifikát) a útočník může přesměrovat požadavky z webového prohlížeče na www server na ftp server nebo odpovědi z ftp

… více »
Ladislav Hagara | Komentářů: 4
dnes 07:00 | Zajímavý software

Google na svém blogu věnovaném vývojářům představil projekt Fully Homomorphic Encryption (FHE) aneb open source knihovny a nástroje pro homomorfní šifrování.

Ladislav Hagara | Komentářů: 5
dnes 00:11 | IT novinky

Intel představil svou vizi IPU – Infrastructure Processing Unit. Jedná se o nové programovatelné síťové zařízení postavené na FPGA nebo ASIC umožňující poskytovatelům cloudových a komunikačních služeb snížit režijní náklady a uvolnit výkon CPU.

Ladislav Hagara | Komentářů: 0
včera 23:11 | Komunita

Bylo potvrzeno, že v sobotu 17. července 2021 bude spuštěna poslední fáze zmrazování (Full Freeze) Debianu 11 s kódovým jménem Bullseye.

Ladislav Hagara | Komentářů: 1
včera 18:55 | IT novinky

Akční sci-fi RPG hra Hellpoint je na portále GOG.com zdarma, akce trvá do 16. června.

Fluttershy, yay! | Komentářů: 2
13.6. 23:33 | Nová verze

Byla vydána nová verze 0.10.0 počítačové hry Veloren. Jedná se o open source open world multiplayer voxel RPG. Hra je vyvíjena v programovacím jazyce Rust. Inspirována je hrami Cube World, Legend of Zelda: Breath of the Wild, Dwarf Fortress a Minecraft. Videoukázka na YouTube. Zdrojové kódy jsou ke stažení na GitLabu pod licencí GNU GPL 3.0. Veloren je k dispozici také na Flathubu a Snapcraftu.

Ladislav Hagara | Komentářů: 0
12.6. 12:11 | Zajímavý software

Do pondělí 14. června do 19:00 lze na Humble Bundle získat zdarma počítačovou hru Surviving Mars - Deluxe Edition (YouTube) běžící také na Linuxu.

Ladislav Hagara | Komentářů: 3
11.6. 17:55 | Zajímavý software

RTS (Real-time strategy) hra Loria běžící také na Linuxu je nově k dispozici zdarma (Steam, GOG.com). Vývojový tým se soustředí na RTS hru Liquidation. Její vývoj lze podpořit na Kickstarteru.

Ladislav Hagara | Komentářů: 0
11.6. 09:00 | Nová verze

PeaZip (Wikipedie), tj. multiplatformní správce archivů naprogramovaný ve Free Pascalu v Lazarusu, dospěl do verze 8.0. Přehled novinek v poznámkách k vydání.

Ladislav Hagara | Komentářů: 14
Používáte kalkulačku?
 (9%)
 (31%)
 (60%)
 (27%)
 (12%)
Celkem 193 hlasů
 Komentářů: 24, poslední včera 09:50
Rozcestník

Dotaz: ffmpeg a nahrávání přes filtr

18.5.2019 18:28 jejda | skóre: 14 | blog: jejda
ffmpeg a nahrávání přes filtr
Přečteno: 282×
Ahojte. Pokouším se podle návodu smíchat dva stereo zvuky do jednoho. Problém je, potřebuju jeden z nich předtím prohnat přes pár filtrů, protože kvalita stojí zaprd. Jeden je mikrofón (usbmic) a druhý je virtuální vstup na alsa zvukovce odkud nahrávám zvuky co vydávájí programy (looprec).


$ ffmpeg -f alsa -i usbmic -f alsa -i looprec -filter_complex "[0:a]highpass=10,volume=20dB[0:a];[0:a][1:a]amerge=inputs=2[a]" -map "[a]" -ac 2 test.wav
Guessed Channel Layout for Input Stream #0.0 : stereo
Input #0, alsa, from 'usbmic':
  Duration: N/A, start: 1558195138.708653, bitrate: 1536 kb/s
    Stream #0:0: Audio: pcm_s16le, 48000 Hz, stereo, s16, 1536 kb/s
Guessed Channel Layout for Input Stream #1.0 : stereo
Input #1, alsa, from 'looprec':
  Duration: N/A, start: 1558195138.792802, bitrate: 1536 kb/s
    Stream #1:0: Audio: pcm_s16le, 48000 Hz, stereo, s16, 1536 kb/s
Stream mapping:
  Stream #0:0 (pcm_s16le) -> amerge:in0
  Stream #1:0 (pcm_s16le) -> amerge:in1
  amerge -> Stream #0:0 (pcm_s16le)
Press [q] to stop, [?] for help
[Parsed_amerge_2 @ 0x55d4d2c80700] No channel layout for input 1
[Parsed_amerge_2 @ 0x55d4d2c80700] Input channel layouts overlap: output layout will be determined by the number of distinct input channels
[Parsed_volume_1 @ 0x55d4d2c7f480] Cannot select sample rate for the link between filters Parsed_volume_1 and Parsed_highpass_0.
Error reinitializing filters!
Failed to inject frame into filter network: Invalid argument
Error while processing the decoded data for stream #1:0
Conversion failed!
Bude tam nejspíš zmatek s těma labels v hranatých závorkách. Bez těch filtrů highpass a volume to downmixuje hezky.

Řešení dotazu:


Odpovědi

18.5.2019 19:09 jejda | skóre: 14 | blog: jejda
Rozbalit Rozbalit vše Re: ffmpeg a nahrávání přes filtr
Ještě doplním že nahrávání samotného mikrofonního vstupu přes filtry
ffmpeg -f alsa -i usbmic -filter_complex "highpass=10,volume=20dB" -ac 2 test.wav
funguje jak má.
18.5.2019 19:29 NN
Rozbalit Rozbalit vše Re: ffmpeg a nahrávání přes filtr
Mozna by stacilo upravit vystupni label prvniho streamu, jinak to poleze do merge nezmenene..
ffmpeg -f alsa -i usbmic -f alsa -i looprec -filter_complex "[0:a]highpass=10,volume=20dB[aout];[aout][1:a]amerge=inputs=2[a]" -map "[a]" -ac 2 test.wav
18.5.2019 19:56 jejda | skóre: 14 | blog: jejda
Rozbalit Rozbalit vše Re: ffmpeg a nahrávání přes filtr
Nejde. Ale teď už to hlásí jinačí chybu:
The following filters could not choose their formats: Parsed_amerge_2
Consider inserting the (a)format filter near their input or output.
Moc rozumu z toho teda nemám.
Řešení 1× (jejda (tazatel))
20.5.2019 10:21 jejda | skóre: 14 | blog: jejda
Rozbalit Rozbalit vše Re: ffmpeg a nahrávání přes filtr
Tak se nakonec povedlo. Ten mikrofonní stream se musí přesamplovat filtrem aformat na 48kHz než vyleze z toho prvního chainu (před tím středníkem), jinak to amerge nepobere. Nechápu k čemu, když z alsy leze 48kHz by default. Navíc ffmpeg si to při spuštění sám detekuje ...
Stream #0:0: Audio: pcm_s16le, 48000 Hz, stereo, s16, 1536 kb/s
Ale budiž.

Celý ten příkaz je ale tak nechutně dlouhý, že jsem si to rači šoupnul do skriptu.

Co mě příjemně překvapilo, tak to vůbec není out-of-sync. Čekal jsem aspon 50-100 milisekund zpoždění u mikrofonu. V audacity musím mít nastaveno 130ms. Existuje vůbec nejaký commandline program na nahrávání karaoke? Toto by se na to dalo v klidu použít, když to nemá latence ..:-)

Při odesílání komentáře mi to píše: "Značka C0\+\C2\|\C1 není povolena!" (bez těch zpětných lomítek) Co to znamená? Nemůžu sem kvuli tomu dát ten funkční ffmpeg filtr

Řešení 1× (jejda (tazatel))
20.5.2019 21:04 jejda | skóre: 14 | blog: jejda
Rozbalit Rozbalit vše Re: ffmpeg a nahrávání přes filtr
V praxi se bohužel ukázalo, že neexistuje univerzální nastavení filtrů pro všecky situace. Takto je ten filtr natvrdo zadrátovaný a jakmile se to jednou nahraje blbě, tak už to nejde nijak dodatečně opravit. Protože Audacity neumí nahrávat z více nezávislých zdrojů naráz zatím to řeším tak, že ffmpegem vyrobím ze dvou stereo vstupů jeden čtyřkanálový wav.
ffmpeg -f alsa -i usbmic -f alsa -i looprec -filter_complex "join=inputs=2:channel_layout=quad" output.wav
A případné filtrování a downmix udělám ručně v audacity. Je to sice víc práce ale výsledek za to stojí.

Založit nové vláknoNahoru

Tiskni Sdílej: Linkuj Jaggni to Vybrali.sme.sk Google Del.icio.us Facebook

ISSN 1214-1267   www.czech-server.cz
© 1999-2015 Nitemedia s. r. o. Všechna práva vyhrazena.