abclinuxu.cz AbcLinuxu.cz itbiz.cz ITBiz.cz HDmag.cz HDmag.cz abcprace.cz AbcPráce.cz
AbcLinuxu hledá autory!
Inzerujte na AbcPráce.cz od 950 Kč
Rozšířené hledání
×
dnes 07:00 | Nová verze

Dnes odpoledne vyjde Mozilla Firefox 75.0. Oficiální verze ve formátu Flatpak je již k dispozici na Flathubu. Přehled novinek bude zveřejněn v poznámkách k vydání a na stránce věnované vývojářům.

Ladislav Hagara | Komentářů: 0
včera 18:44 | IT novinky

Paul Cormier je novým prezidentem a CEO společnosti Red Hat. Jim Whitehurst je prezidentem IBM.

Ladislav Hagara | Komentářů: 0
včera 17:22 | Humor

Lukáš Churý připravil malou pátrací hru. Je určená hlavně pro webaře. Zahrát si ji ale může každý, kdo má alespoň základní ponětí o HTML.

Ladislav Hagara | Komentářů: 24
včera 08:00 | Zajímavý software

Byla vydána verze 0.5.0 jednoduchého a uživatelsky přívětivého Jabber/XMPP klienta Kaidan postaveného na Kirigami a QtQuick. Zdrojové kódy jsou k dispozici na GitLabu.

Ladislav Hagara | Komentářů: 0
včera 07:00 | Nová verze

Aplikace pro čtení elektronických knih Foliate, založená na knihovně Epub.js, vyšla ve verzi 2.0, která přináší přepracované uživatelské rozhraní a řadu drobných vylepšení.

Fluttershy, yay! | Komentářů: 8
4.4. 18:44 | Bezpečnostní upozornění

Twitter upozornil, že pokud se uživatel Twitteru přihlašoval ve Firefoxu na sdíleném nebo veřejném počítači, tak po odhlášení se z Twitteru mohla na disku zůstat nakešovaná citlivá data, a proto toto kešování pro Firefox zakázal. Reakce Mozilly: Twitter by měl prostě dodržovat standardy.

Ladislav Hagara | Komentářů: 4
4.4. 17:44 | Zajímavý článek

Článek na Jitsi je věnován bezpečnosti a soukromí uživatelů při používání videokonferenčního softwaru Jitsi Meet. Doporučuje se zamyslet nad názvem místnosti. Upozorňuje, že místnost existuje, pouze pokud se v ní někdo nachází. V případě nastavení hesla, je toto heslo s ukončením místnosti zapomenuto a při opětovném použití místnosti je nutno jej opět zadat.

Ladislav Hagara | Komentářů: 2
4.4. 06:00 | IT novinky

Na Indiegogo byla spuštěna kampaň na podporu chytrého telefonu a kapesního počítače Astro Slide 5G Transformer od společnosti Planet Computers. Požadovaná částka 180 000 eur byla vybrána během 4 hodin. Stejně jako u předchozích zařízení Gemini PDA a Cosmo Communicator od této společnosti je slíbená podpora Linuxu.

Ladislav Hagara | Komentářů: 18
3.4. 19:22 | Zajímavý software

CryptPad je svobodný online kancelářský balík. Zdrojové kódy jsou k dispozici na GitHubu pod licencí AGPL-3.0. Oficiální instance nově nabízí 1 GB prostoru. Mozilla Foundation tento týden věnovala projektu 10 000 $.

Ladislav Hagara | Komentářů: 2
3.4. 18:22 | Nová verze

Byla vydána finální beta verze Ubuntu 20.04 LTS s kódovým názvem Focal Fossa. Přehled novinek v poznámkách k vydání. Dle plánu by Ubuntu 20.04 mělo vyjít 23. dubna 2020.

Ladislav Hagara | Komentářů: 6
Chodíte do práce?
 (26%)
 (1%)
 (4%)
 (3%)
 (47%)
 (13%)
 (5%)
Celkem 164 hlasů
 Komentářů: 4, poslední 2.4. 14:20
Rozcestník

www.AutoDoc.Cz

Dotaz: ffmpeg a nahrávání přes filtr

18.5.2019 18:28 jejda | skóre: 5
ffmpeg a nahrávání přes filtr
Přečteno: 244×
Ahojte. Pokouším se podle návodu smíchat dva stereo zvuky do jednoho. Problém je, potřebuju jeden z nich předtím prohnat přes pár filtrů, protože kvalita stojí zaprd. Jeden je mikrofón (usbmic) a druhý je virtuální vstup na alsa zvukovce odkud nahrávám zvuky co vydávájí programy (looprec).


$ ffmpeg -f alsa -i usbmic -f alsa -i looprec -filter_complex "[0:a]highpass=10,volume=20dB[0:a];[0:a][1:a]amerge=inputs=2[a]" -map "[a]" -ac 2 test.wav
Guessed Channel Layout for Input Stream #0.0 : stereo
Input #0, alsa, from 'usbmic':
  Duration: N/A, start: 1558195138.708653, bitrate: 1536 kb/s
    Stream #0:0: Audio: pcm_s16le, 48000 Hz, stereo, s16, 1536 kb/s
Guessed Channel Layout for Input Stream #1.0 : stereo
Input #1, alsa, from 'looprec':
  Duration: N/A, start: 1558195138.792802, bitrate: 1536 kb/s
    Stream #1:0: Audio: pcm_s16le, 48000 Hz, stereo, s16, 1536 kb/s
Stream mapping:
  Stream #0:0 (pcm_s16le) -> amerge:in0
  Stream #1:0 (pcm_s16le) -> amerge:in1
  amerge -> Stream #0:0 (pcm_s16le)
Press [q] to stop, [?] for help
[Parsed_amerge_2 @ 0x55d4d2c80700] No channel layout for input 1
[Parsed_amerge_2 @ 0x55d4d2c80700] Input channel layouts overlap: output layout will be determined by the number of distinct input channels
[Parsed_volume_1 @ 0x55d4d2c7f480] Cannot select sample rate for the link between filters Parsed_volume_1 and Parsed_highpass_0.
Error reinitializing filters!
Failed to inject frame into filter network: Invalid argument
Error while processing the decoded data for stream #1:0
Conversion failed!
Bude tam nejspíš zmatek s těma labels v hranatých závorkách. Bez těch filtrů highpass a volume to downmixuje hezky.

Řešení dotazu:


Odpovědi

18.5.2019 19:09 jejda | skóre: 5
Rozbalit Rozbalit vše Re: ffmpeg a nahrávání přes filtr
Ještě doplním že nahrávání samotného mikrofonního vstupu přes filtry
ffmpeg -f alsa -i usbmic -filter_complex "highpass=10,volume=20dB" -ac 2 test.wav
funguje jak má.
18.5.2019 19:29 NN
Rozbalit Rozbalit vše Re: ffmpeg a nahrávání přes filtr
Mozna by stacilo upravit vystupni label prvniho streamu, jinak to poleze do merge nezmenene..
ffmpeg -f alsa -i usbmic -f alsa -i looprec -filter_complex "[0:a]highpass=10,volume=20dB[aout];[aout][1:a]amerge=inputs=2[a]" -map "[a]" -ac 2 test.wav
18.5.2019 19:56 jejda | skóre: 5
Rozbalit Rozbalit vše Re: ffmpeg a nahrávání přes filtr
Nejde. Ale teď už to hlásí jinačí chybu:
The following filters could not choose their formats: Parsed_amerge_2
Consider inserting the (a)format filter near their input or output.
Moc rozumu z toho teda nemám.
Řešení 1× (jejda (tazatel))
20.5.2019 10:21 jejda | skóre: 5
Rozbalit Rozbalit vše Re: ffmpeg a nahrávání přes filtr
Tak se nakonec povedlo. Ten mikrofonní stream se musí přesamplovat filtrem aformat na 48kHz než vyleze z toho prvního chainu (před tím středníkem), jinak to amerge nepobere. Nechápu k čemu, když z alsy leze 48kHz by default. Navíc ffmpeg si to při spuštění sám detekuje ...
Stream #0:0: Audio: pcm_s16le, 48000 Hz, stereo, s16, 1536 kb/s
Ale budiž.

Celý ten příkaz je ale tak nechutně dlouhý, že jsem si to rači šoupnul do skriptu.

Co mě příjemně překvapilo, tak to vůbec není out-of-sync. Čekal jsem aspon 50-100 milisekund zpoždění u mikrofonu. V audacity musím mít nastaveno 130ms. Existuje vůbec nejaký commandline program na nahrávání karaoke? Toto by se na to dalo v klidu použít, když to nemá latence ..:-)

Při odesílání komentáře mi to píše: "Značka C0\+\C2\|\C1 není povolena!" (bez těch zpětných lomítek) Co to znamená? Nemůžu sem kvuli tomu dát ten funkční ffmpeg filtr

Řešení 1× (jejda (tazatel))
20.5.2019 21:04 jejda | skóre: 5
Rozbalit Rozbalit vše Re: ffmpeg a nahrávání přes filtr
V praxi se bohužel ukázalo, že neexistuje univerzální nastavení filtrů pro všecky situace. Takto je ten filtr natvrdo zadrátovaný a jakmile se to jednou nahraje blbě, tak už to nejde nijak dodatečně opravit. Protože Audacity neumí nahrávat z více nezávislých zdrojů naráz zatím to řeším tak, že ffmpegem vyrobím ze dvou stereo vstupů jeden čtyřkanálový wav.
ffmpeg -f alsa -i usbmic -f alsa -i looprec -filter_complex "join=inputs=2:channel_layout=quad" output.wav
A případné filtrování a downmix udělám ručně v audacity. Je to sice víc práce ale výsledek za to stojí.

Založit nové vláknoNahoru

Tiskni Sdílej: Linkuj Jaggni to Vybrali.sme.sk Google Del.icio.us Facebook

ISSN 1214-1267   www.czech-server.cz
© 1999-2015 Nitemedia s. r. o. Všechna práva vyhrazena.