abclinuxu.cz AbcLinuxu.cz itbiz.cz ITBiz.cz HDmag.cz HDmag.cz abcprace.cz AbcPráce.cz
Inzerujte na AbcPráce.cz od 950 Kč
Rozšířené hledání
×
    včera 21:11 | Nová verze

    Byla vydána nová major verze 6.0 živé linuxové distribuce Tails (The Amnesic Incognito Live System), jež klade důraz na ochranu soukromí uživatelů a anonymitu. Založena je na Debianu 12 Bookworm a GNOME 43. Přehled změn v příslušném seznamu. Tor Browser byl povýšen na verzi 13.0.10.

    Ladislav Hagara | Komentářů: 0
    včera 14:44 | IT novinky Ladislav Hagara | Komentářů: 18
    včera 09:00 | Zajímavý software

    Jose Fernandez z Netflixu představil nástroj bpftop pro monitorování eBPF programů.

    Ladislav Hagara | Komentářů: 1
    včera 08:00 | Nová verze

    Incus (GitHub), komunitní fork nástroje pro správu kontejnerů LXD, byl vydán ve verzi 0.6 (YouTube). Vyzkoušet jej lze online ve webovém prohlížeči.

    Ladislav Hagara | Komentářů: 0
    26.2. 19:22 | IT novinky

    Společnost Broadcom prodává svou End-User Computing (EUC) Division (Workspace ONE a Horizon) koupenou se společností VMware investiční společnosti KKR za 4 miliardy dolarů.

    Ladislav Hagara | Komentářů: 0
    26.2. 14:44 | IT novinky

    Začal veletrh MWC Barcelona 2024 (Mobile World Congress). Firmy představují své novinky. Lenovo například ThinkBook s průhledným displejem (YouTube).

    Ladislav Hagara | Komentářů: 1
    26.2. 12:55 | Nová verze

    Byla vydána nová verze 1.46.0 sady nástrojů pro správu síťových připojení NetworkManager. Novinkám se v příspěvku na blogu NetworkManageru věnuje Fernando F. Mancera. Vypíchnout lze podporu randomizace MAC adresy na základě Wi-Fi sítě (wifi.cloned-mac-address=stable-ssid). Schváleno pro Fedora Linux 40.

    Ladislav Hagara | Komentářů: 0
    25.2. 22:00 | Zajímavý článek

    Byly zveřejněny výsledky průzkumu mezi vývojáři v programovacím jazyce Rust: 2023 Annual Rust Survey Results. Téměř 70 % účastníků průzkumu vyvíjí na Linuxu, 85 % pro Linux, téměř 62 % používá Visual Studio Code, …

    Ladislav Hagara | Komentářů: 5
    25.2. 21:11 | Nová verze

    Dlaždicový správce oken, resp. kompozitor pro Wayland Sway byl vydán ve verzi 1.9 založené na wlroots 0.17. Měl by poskytovat lepší výkon a přidává několik konfiguračních voleb, příkazů atd.

    Fluttershy, yay! | Komentářů: 0
    25.2. 13:33 | Nová verze

    Byla vydána nová verze 2.44.0 distribuovaného systému správy verzí Git. Přispělo 85 vývojářů, z toho 34 nových. Přehled novinek v příspěvku na blogu GitHubu a v poznámkách k vydání.

    Ladislav Hagara | Komentářů: 0
    Kolik máte nálepek na víku notebooku?
     (18%)
     (59%)
     (5%)
     (3%)
     (5%)
     (9%)
    Celkem 411 hlasů
     Komentářů: 18, poslední včera 20:10
    Rozcestník

    Dotaz: konverze mov na avi

    24.10.2009 10:57 JFK
    konverze mov na avi
    Přečteno: 1012×
    Ahoj, vim, ze tohle si rika primo o RTFM nebo STFG, ale fakt nevim co s tim. Zkousel jsem tohle:

    mencoder p1120569.mov -oac mp3lame -ovc lavc -o p1120569.avi

    vysledkem je, ze mam posunuty zvuk a jak video jede dal tak se to porad zhorsuje

    zkousel jsem to i dvoupruchodove:

    mencoder p1120569.mov -o /dev/null -oac mp3lame -lameopts vbr=3 -ovc lavc -lavcopts vcodec=mpeg4:vpass=1

    mencoder p1120569.mov -o "p1120569.avi" -oac mp3lame -lameopts vbr=3 -ovc lavc -lavcopts vcodec=mpeg4:mbd=2:trell:vpass=2

    Vysledek je stejnej.

    FFmpeg nejede ...

    # ffmpeg -i p1120569.mov -b 64k -r 24 p1120569.avi Output #0, avi, to 'p1120569.avi': Stream #0.0(eng): Video: mpeg4, yuv420p, 640x480, q=2-31, 64 kb/s, 24.00 tb(c) Stream #0.1(eng): Audio: mp2, 8000 Hz, mono, s16, 64 kb/s Stream mapping: Stream #0.0 -> #0.0 Stream #0.1 -> #0.1 [mp2 @ 0xabad20]Sampling rate 8000 is not allowed in mp2 Error while opening codec for output stream #0.1 - maybe incorrect parameters such as bit_rate, rate, width or height

    Jak to delate vy? Ve videoformatech se vubec nevyznam. Potrebuju jen zmensit mov co mi leze z fotaku, protoze je to brutalne velky - 600MB 8min videa.

    Dik moc

    Řešení dotazu:


    Odpovědi

    24.10.2009 11:42 frantisek | skóre: 11
    Rozbalit Rozbalit vše Re: konverze mov na avi
    onehdá jsem slavil úspěch s tímto:
    mencoder -oac pcm -ovc lavc -noskip -mc 0 p1040712.mov -o vystup.avi
    24.10.2009 12:04 JFK
    Rozbalit Rozbalit vše Re: konverze mov na avi
    Dik moc, jedete to nadherne, zadny rozjizdeni zvuku. Z 600MB to udela 50MB.

    Založit nové vláknoNahoru

    Tiskni Sdílej: Linkuj Jaggni to Vybrali.sme.sk Google Del.icio.us Facebook

    ISSN 1214-1267   www.czech-server.cz
    © 1999-2015 Nitemedia s. r. o. Všechna práva vyhrazena.