abclinuxu.cz AbcLinuxu.cz itbiz.cz ITBiz.cz HDmag.cz HDmag.cz abcprace.cz AbcPráce.cz
AbcLinuxu hledá autory!
Inzerujte na AbcPráce.cz od 950 Kč
Rozšířené hledání
×
včera 13:22 | Zajímavý projekt

Více než 60 moderních telefonů má díky práci týmu dobrovolníků SOMainline šanci na zařazení do oficiálního linuxového jádra. Patche pro podporu chipsetu SD630 a SD660, kterým jsou tyto telefony poháněny, jsou postupně začleňovány. Tým se soustředí na zprovoznění klasických linuxových distribucí pro telefony, ale věnuje se i zprovoznění běžného AOSP. Další tým vývojářů postmarketOS již delší dobu pracuje na podpoře chipsetu MSM8953, který umožňuje vdechnout život dalším nejméně 30 telefonům vydaných v letech 2017 a 2018.

David Heidelberg | Komentářů: 17
včera 08:00 | Komunita

Svobodný kancelářský balík LibreOffice slaví 10 let od svého vzniku. Projekt byl představen 28. září 2010.

Ladislav Hagara | Komentářů: 14
včera 07:00 | Pozvánky

Ve dnech 15. až 17. října 2020 se bude konat společná openSUSE + LibreOffice konference. Původně měla konference probíhat v Norimberku, ale vzhledem k situaci bude probíhat online. Konference již zveřejnila program. Naplánováno je několik desítek přednášek. Registrace a podrobnosti naleznete na stránce konference.

Zdeněk Crhonek | Komentářů: 1
27.9. 18:11 | Zajímavý software

SimulIDE je realtimový simulátor elektronických obvodů. Podporuje také PIC, AVR a Arduino. K dispozici je verze 0.4.13. Vývojáře lze podpořit na Patreonu.

Ladislav Hagara | Komentářů: 0
27.9. 14:11 | Nová verze

Virtual Machine Manager aneb virt-manager (Wikipedie), tj. GUI pro správu virtuálních strojů podporovaných knihovnou libvirt, byl vydán ve verzi 3.0.0. Přehled novinek v příspěvku na blogu. Zdůrazněna je nová volba --cloud-init.

Ladislav Hagara | Komentářů: 4
27.9. 11:11 | Zajímavý software

Vývojáři programovacího jazyka Swift na svém blogu oznámili, že společností Apple v červnu představená knihovna Swift System je již open source a byla do ní přidána podpora Linuxu. Jedná se o knihovnu poskytující idiomatická rozhraní k systémovým voláním.

Ladislav Hagara | Komentářů: 0
26.9. 15:11 | Nová verze

Byl vydán Debian 10.6, tj. šestá opravná verze Debianu 10 s kódovým názvem Buster. Řešeny jsou především bezpečnostní problémy, ale také několik vážných chyb. Instalační média Debianu 10 lze samozřejmě nadále k instalaci používat. Po instalaci stačí systém aktualizovat.

Ladislav Hagara | Komentářů: 1
25.9. 23:11 | Bezpečnostní upozornění

Byly zveřejněny informace o bezpečnostní chybě BLURtooth (CVE-2020-15802) v Bluetooth 4.2 a 5.0 v Cross-Transport Key Derivation (CTKD). Útočník může provádět MITM nebo navázat spojení s libovolným zařízením. Podrobnosti v článku (pdf).

Ladislav Hagara | Komentářů: 2
25.9. 21:44 | IT novinky

Byly zveřejněny informace o úniku zdrojových kódů Windows XP.

Ladislav Hagara | Komentářů: 34
25.9. 15:22 | Zajímavý projekt

Chcete proniknout do tajů gitu? Klikněte na Learn Git Branching. Vizuální a interaktivní tutoriál ve webovém prohlížeči.

Ladislav Hagara | Komentářů: 1
Používáte aplikaci eRouška?
 (19%)
 (3%)
 (2%)
 (12%)
 (50%)
 (8%)
 (6%)
Celkem 459 hlasů
 Komentářů: 35, poslední 20.9. 21:50
Rozcestník

Dotaz: kdenlive (openshot) 1920/1440

5.7.2014 21:52 marek_hb
kdenlive (openshot) 1920/1440
Přečteno: 110×
ahoj, jsem stastným majitelem GP3 black a až donedávna bylo pod kdenlive vse v pohode, ale po aktualizaci na verzi 9.8 mi při jakémkoli renderu mi kdenlive přidá kolem dokola černý rámeček který je tam zbytečný

točím do:
marek@debian-desktop:~$ mediainfo GOPR4093.MP4 
General
Complete name                            : GOPR4093.MP4
Format                                   : MPEG-4
Format profile                           : JVT
Codec ID                                 : avc1
File size                                : 220 MiB
Duration                                 : 1mn 0s
Overall bit rate mode                    : Variable
Overall bit rate                         : 30.3 Mbps
Encoded date                             : UTC 2014-06-28 13:52:42
Tagged date                              : UTC 2014-06-28 13:52:42
AMBA                                     : 

Video
ID                                       : 1
Format                                   : AVC
Format/Info                              : Advanced Video Codec
Format profile                           : High@L5.0
Format settings, CABAC                   : Yes
Format settings, ReFrames                : 1 frame
Format settings, GOP                     : M=1, N=15
Codec ID                                 : avc1
Codec ID/Info                            : Advanced Video Coding
Duration                                 : 1mn 0s
Bit rate mode                            : Variable
Bit rate                                 : 30.0 Mbps
Width                                    : 1 920 pixels
Height                                   : 1 440 pixels
Display aspect ratio                     : 4:3
Frame rate mode                          : Constant
Frame rate                               : 29.970 fps
Color space                              : YUV
Chroma subsampling                       : 4:2:0
Bit depth                                : 8 bits
Scan type                                : Progressive
Bits/(Pixel*Frame)                       : 0.362
Stream size                              : 218 MiB (99%)
Title                                    : GoPro AVC
Language                                 : English
Encoded date                             : UTC 2014-06-28 13:52:42
Tagged date                              : UTC 2014-06-28 13:52:42
Color primaries                          : BT.709
Transfer characteristics                 : BT.709
Matrix coefficients                      : BT.709

Audio
ID                                       : 2
Format                                   : AAC
Format/Info                              : Advanced Audio Codec
Format profile                           : LC
Codec ID                                 : 40
Duration                                 : 1mn 0s
Bit rate mode                            : Constant
Bit rate                                 : 128 Kbps
Channel(s)                               : 2 channels
Channel positions                        : Front: L R
Sampling rate                            : 48.0 KHz
Compression mode                         : Lossy
Stream size                              : 950 KiB (0%)
Title                                    : GoPro AAC
Language                                 : English
Encoded date                             : UTC 2014-06-28 13:52:42
Tagged date                              : UTC 2014-06-28 13:52:42
nevíte někdo co s tím?

dělá mi to kdenlive i openshot (pod debian unstable/experimental 64 bit), takže tipuju problem s něčím jako MLT, nebo tak něco

Na otázku zatím nikdo bohužel neodpověděl.

Založit nové vláknoNahoru

Tiskni Sdílej: Linkuj Jaggni to Vybrali.sme.sk Google Del.icio.us Facebook

ISSN 1214-1267   www.czech-server.cz
© 1999-2015 Nitemedia s. r. o. Všechna práva vyhrazena.