abclinuxu.cz AbcLinuxu.cz itbiz.cz ITBiz.cz HDmag.cz HDmag.cz abcprace.cz AbcPráce.cz
AbcLinuxu hledá autory!
Inzerujte na AbcPráce.cz od 950 Kč
Rozšířené hledání
×
    dnes 09:00 | Nová verze

    Po 17 alfa verzích a 17 beta verzích byla vydána první Release Candidate verze nové major verze 4.0 multiplatformního open source herního enginu Godot (Wikipedie, GitHub). Přehled novinek v příspěvku na blogu.

    Ladislav Hagara | Komentářů: 0
    včera 21:44 | Komunita Ladislav Hagara | Komentářů: 2
    včera 16:11 | Nová verze

    Byla vydána nová verze 1.48 webového prohlížeče Brave (Wikipedie, GitHub). Postavena je na Chromiu 110. V platnost vstoupily změny v Odměnách Brave. Končí virtuální BAT (vBAT). Pro vydělávání na tokenech BAT je nutné propojit úschovný účet s profilem odměn aneb vytvořit si účet na Uphold.

    Ladislav Hagara | Komentářů: 0
    včera 09:00 | Nová verze

    Endless OS byl vydán ve verzi 5.0.0. Přehled novinek i s náhledy v poznámkách k vydání.

    Ladislav Hagara | Komentářů: 5
    včera 08:00 | Nová verze

    Google Chrome 110 byl prohlášen za stabilní. Nejnovější stabilní verze 110.0.5481.77 přináší řadu oprav a vylepšení (YouTube). Opraveno bylo 15 bezpečnostních chyb. Vylepšeny byly také nástroje pro vývojáře (YouTube).

    Ladislav Hagara | Komentářů: 4
    včera 07:00 | Komunita

    Bylo rozhodnuto, že nejnovější Linux 6.1 je jádrem s prodlouženou upstream podporou (LTS). Ta je plánována do prosince 2026. LTS jader je aktuálně šest: 4.14, 4.19, 5.4, 5.10, 5.15 a 6.1.

    Ladislav Hagara | Komentářů: 4
    včera 05:22 | Nová verze

    Byla vydána nová major verze 4.0.0 multiplatformního BitTorrent klienta Transmission (Wikipedie). Přehled novinek na GitHubu.

    Ladislav Hagara | Komentářů: 0
    7.2. 13:33 | IT novinky

    Do 13. února běží na Steamu přehlídka nadcházejících her Festival Steam Next | únor 2023 doplněná demoverzemi, přenosy a dalšími aktivitami. Demoverze lze hrát zdarma.

    Ladislav Hagara | Komentářů: 0
    7.2. 12:11 | Bezpečnostní upozornění

    Byl vydán xorg-server 21.1.7. Mimo jiné je řešena zranitelnost CVE-2023-0494 zneužitelná k lokální eskalaci práv (pokud X server běží pod právy roota).

    Ladislav Hagara | Komentářů: 4
    6.2. 21:44 | Komunita

    Fedora 38 nabídne celý Flathub. Od Fedory 35 platí, že pokud si v edici Workstation při úvodním nastavení povolíte zdroje třetích stran, nastaví se vám mezi těmito zdroji také Flathub. Ten k dnešnímu dni nabízí zhruba 2000 aplikací ve formátu Flatpak, mezi nimiž naleznete i ty proprietární, které ve Fedoře nejsou k dispozici. Doteď se ale Flathub nastavoval pouze ve filtrované podobě. Dokud si uživatel sám Flathub nepřidal, měl z tohoto

    … více »
    Ladislav Hagara | Komentářů: 2
    Napovídání kódu založené na strojovém učení (např. GitHub Copilot) při programování
     (37%)
     (16%)
     (8%)
     (40%)
    Celkem 63 hlasů
     Komentářů: 4, poslední 3.2. 13:10
    Rozcestník


    Dotaz: Hromadné zmenšení jpg větších než 1920x1920 pomocí convert

    10.11.2022 16:34 Pepa
    Hromadné zmenšení jpg větších než 1920x1920 pomocí convert
    Přečteno: 307×
    Dobrý den, mám prosbu, potřebuji zmenšit jpg příkazem convert a použití < nebo > v příkazu convert pro buď větší nebo menší soubory než je velikost resize. Bohužel nevím jak to udělat a z man a help nejsem chytrý. Můžete mi poradit? Já zatím používám tento příkaz pro změnu velikosti jpg. : convert ${input} -resize ${size} -quality ${quality} ${input} Velikost size mám 1920x1920 a quality 50. Chtěl bych použít tento příkaz na obrázky větší než 1920x1920. Děkuji moc za pomoc. Josef Šmolík
    Po pětašedesátce jde všechno pomaleji.

    Řešení dotazu:


    Odpovědi

    Řešení 1× (lertimir)
    10.11.2022 16:59 bigBRAMBOR | skóre: 36
    Rozbalit Rozbalit vše Re: Hromadné zmenšení jpg větších než 1920x1920 pomocí convert
    aby to větší zmenšilo ale menší nezvětšilo?

    convert vobrazek.jpg -resize 1920x1920\> vobrazek-maly.jpg
    10.11.2022 18:37 PetebLazar | skóre: 31 | blog: l_eonardovo_odhodlani
    Rozbalit Rozbalit vše Re: Hromadné zmenšení jpg větších než 1920x1920 pomocí convert
    Trochu mne zarazi zmena velikosti u obrazku, ktery byl mensi (1920x1080) nez hranice velikosti v convert prikazu (3000x2000). Asi by bylo vhodne overit, ze nedoslo k reencodingu obrazku (s dopadem na kvalitu) a pozorovany rozdil velikosti jde pouze na vrub metadat/thumbnailu. c
    convert -resize 3000x2000\>  b.jpg b_out.jpg
    
    user@ubu2204:~/Pictures$ mediainfo b.jpg 
    General
    Complete name                            : b.jpg
    Format                                   : JPEG
    File size                                : 730 KiB
    
    Image
    Format                                   : JPEG
    Width                                    : 1 920 pixels
    Height                                   : 1 080 pixels
    Color space                              : YUV
    Chroma subsampling                       : 4:2:0
    Bit depth                                : 8 bits
    Compression mode                         : Lossy
    Stream size                              : 730 KiB (100%)
    ColorSpace_ICC                           : RGB
    
    
    user@ubu2204:~/Pictures$ mediainfo b_out.jpg 
    General
    Complete name                            : b_out.jpg
    Format                                   : JPEG
    File size                                : 733 KiB
    
    Image
    Format                                   : JPEG
    Width                                    : 1 920 pixels
    Height                                   : 1 080 pixels
    Color space                              : YUV
    Chroma subsampling                       : 4:2:0
    Bit depth                                : 8 bits
    Compression mode                         : Lossy
    Stream size                              : 733 KiB (100%)
    ColorSpace_ICC                           : RGB
    
    
    
    11.11.2022 10:50 Pepa
    Rozbalit Rozbalit vše Re: Hromadné zmenšení jpg větších než 1920x1920 pomocí convert
    Děkuji moc za postrčení a vysvětlení, pomohlo to. Hezký den. Josef Šmolík
    Po pětašedesátce jde všechno pomaleji.
    11.11.2022 10:51 Pepa
    Rozbalit Rozbalit vše Re: Hromadné zmenšení jpg větších než 1920x1920 pomocí convert
    Děkuji moc za postrčení a vysvětlení, pomohlo to. Josef Šmolík
    Po pětašedesátce jde všechno pomaleji.
    11.11.2022 10:52 Pepa
    Rozbalit Rozbalit vše Re: Hromadné zmenšení jpg větších než 1920x1920 pomocí convert
    Díky
    Po pětašedesátce jde všechno pomaleji.
    12.11.2022 12:22 Vtipnéř | skóre: 37 | blog: Vtipnéřův blog | Brno
    Rozbalit Rozbalit vše Re: Hromadné zmenšení jpg větších než 1920x1920 pomocí convert
    Po padesátce jde všechno pomaleji.
    To taky znám, ještě že nejsou tak staré počítače. Ale používám 40 let starou kalkulačku. :-)

    Jirka
    Opening Windows is better than washing them. Clearing Windows (e.g. erasing or deleting) is even much better.

    Založit nové vláknoNahoru

    Tiskni Sdílej: Linkuj Jaggni to Vybrali.sme.sk Google Del.icio.us Facebook

    ISSN 1214-1267   www.czech-server.cz
    © 1999-2015 Nitemedia s. r. o. Všechna práva vyhrazena.